Уик-Энд / Weekend (Станислав Говорухин) [2013, драма, детектив, криминал, WEB-DL 720p, AVC]

Ответить на тему
 
Автор Сообщение

user ®

Стаж: 7 лет 11 месяцев

Сообщений: 20008

Пост Пост: #1 от 02-Ноя-2014 04:25

[Цитировать]

Уик-Энд / Weekend
Жанр: драма, нуар, криминал, детектив
Год выпуска: 2013
Продолжительность: 01:36:47
Режиссёр: Станислав Говорухин
В ролях: Максим Матвеев, Вячеслав Чепурченко, Виктор Сухоруков, Юлия Пересильд, Екатерина Гусева, Александр Домогаров, Татьяна Коновалова, Марина Орлова, Мария Тверитнева, Юлия Хлынина
Описание: Сюжет основан на идее романа Ноэля Калефа «Лифт на эшафот», в котором человек совершил убийство и, покидая место преступления, застрял в лифте. Чёрно-белая лента Говорухина — ремейк французской картины 1957 года Луи Маля «Лифт на эшафот». Действие перенесено в наше время, в крупный российский город у моря, с другими персонажами и другим сюжетом — автором адаптации текста романа и фильма является Говорухин. Главный герой, работающий в крупной московской компании, убивает аудитора, уличившего его в мошенничестве. Протагонист обставляет убийство как несчастный случай и уходит из здания, но потом возвращается за важными бумагами и застревает в лифте. Как водится, всякое преступление влечёт за собой наказание. Другое дело — какое и за что? Речь идёт о внутренних муках человека, совершившего убийство и поставленного перед непростым выбором: сознаться в содеянном или же взять на себя вину за преступление, которого он не совершал.
Доп. информация: Премьера состоялась в июне 2013 года на Кинотавре.
Сэмпл: http://multi-up.com/1010305
Качество видео: WEB-DL 720p
Формат видео: MKV
Видео: AVC, 3888 Кбит/с, 1280x720 (16:9), 24 кадра/с
Аудио: AC3, 384 Кбит/с (6 ch), 48 КГц
MediaInfo
Общее
Уникальный идентификатор : 179392979360861473836745825782773478471 (0x86F5D4C16C260B87B8A9710F83BA7447)
Полное имя : Уик-Энд (Станислав Говорухин, 2013).mkv
Формат : Matroska
Версия формата : Version 4 / Version 2
Размер файла : 2,95 Гбайт
Продолжительность : 1 ч. 36 м.
Общий поток : 4358 Кбит/сек
Дата кодирования : UTC 2014-11-01 12:56:32
Программа кодирования : mkvmerge v6.9.1 ('Blue Panther') 64bit built on Apr 18 2014 18:23:38
Библиотека кодирования : libebml v1.3.0 + libmatroska v1.4.1
Видео
Идентификатор : 1
Формат : AVC
Формат/Информация : Advanced Video Codec
Профиль формата : High@L3.1
Параметр CABAC формата : Нет
Параметр ReFrames формата : 2 кадра
Идентификатор кодека : V_MPEG4/ISO/AVC
Продолжительность : 1 ч. 36 м.
Битрейт : 3888 Кбит/сек
Ширина : 1280 пикселей
Высота : 720 пикселей
Соотношение сторон : 16:9
Режим частоты кадров : Постоянный
Частота кадров : 24,000 кадра/сек
Цветовое пространство : YUV
Субдискретизация насыщенности : 4:2:0
Битовая глубина : 8 бит
Тип развёртки : Прогрессивная
Бит/(Пиксели*Кадры) : 0.176
Размер потока : 2,63 Гбайт (89%)
Язык : English
Default : Да
Forced : Нет
Основные цвета : BT.709
Характеристики трансфера : BT.709
Коэффициенты матрицы : BT.709
Аудио
Идентификатор : 2
Формат : AC-3
Формат/Информация : Audio Coding 3
Расширение режима : CM (complete main)
Параметр Endianness формата : Big
Идентификатор кодека : A_AC3
Продолжительность : 1 ч. 36 м.
Вид битрейта : Постоянный
Битрейт : 384 Кбит/сек
Каналы : 6 каналов
Расположение каналов : Front: L C R, Side: L R, LFE
Частота : 48,0 КГц
Битовая глубина : 16 бит
Метод сжатия : С потерями
Размер потока : 266 Мбайт (9%)
Язык : Russian
Default : Да
Forced : Нет
Скриншот c названием фильма Скриншоты
Скачать

Скачать торрент!

Как скачивать? · Что такое торрент? · Рейтинг и ограничения

Сайт не распространяет и не хранит электронные версии произведений, а лишь предоставляет доступ к создаваемому пользователями каталогу ссылок на торрент-файлы, которые содержат только списки хеш-сумм

[Профиль] [ЛС]
Показать сообщения:    
Ответить на тему

Текущее время: Сегодня 18:33

Часовой пояс: GMT + 4



Вы не можете начинать темы
Вы не можете отвечать на сообщения
Вы не можете редактировать свои сообщения
Вы не можете удалять свои сообщения
Вы не можете голосовать в опросах
Вы не можете прикреплять файлы к сообщениям
Вы не можете скачивать файлы