Секрет Акко-тян / Himitsu no Akko-chan / Akko-chan\'s Secret (Ясухиро Кавамура / Yasuhiro Kawamura) [2012 г., Япония, фэнтези, романтика, комедия, драма, HDRip] Rus + Original (Jap) + Subs (Rus, Eng)

Ответить на тему
 
Автор Сообщение

user ®

Стаж: 13 лет

Сообщений: 15071

Пост Пост: #1 от 02-Ноя-2014 01:15

[Цитировать]

Секрет Акко-тян / Himitsu no Akko-chan / Akko-chan's Secret

Страна: Япония
Жанр: Фэнтези, романтика, комедия, драма
Год выпуска: 2012
Продолжительность: 2:00:09
Перевод: Любительский (двухголосый закадровый)[GREEN TEA]
Cубтитры: Внешние, отдельной папкой (Русские, Английские)
Оригинальная аудио дорожка: Японская
Режиссёр: Ясухиро Кавамура / Yasuhiro Kawamura
В ролях: Мика Хидзии, Харука Аясе, Теруюки Кагава, Масаки Окада, Такеси Кага, Рен Осуги, Сёсукэ Танихара, Кадзуэ Фукииси, Фрэнк М. Эхерн, Шунгику Учида и др.
Описание: Молодая Ацуко Кагами владеет волшебным зеркалом, которое позволяет ей превращаться во все, что она пожелает. Ацуко влюбляется в 22-летнего студента. Его компания находится под угрозой поглощения, и она пытается помочь сохранить компанию, используя свои способности…
Сэмпл
Качество: HDRip
Формат: AVI
Видео кодек: XviD
Аудио кодек: MP3
Video: Xvid 720x304 ~2071 Kbps 23.976 fps 0.395 bit/pixel
Audio1: MP3 48000Hz 2ch 192kbps [Русский]
Audio2: MP3 48000Hz 2ch 192kbps [Японский]

[url=http://***/forum/tracker.php?nm=%D0%A1%D0%B5%D0%BA%D1%80%D0%B5%D1%82%20%D0%90%D0%BA%D0%BA%D0%BE-%D1%82%D1%8F%D0%BD]Предыдущие и альтернативные раздачи[/url]
MediaInfo#
E:\Video\Com\akkochan\Akko.Chan.2012\Himitsu.No.Akko.Chan.2012.HDRip.avi
General
Complete name : E:\Video\Com\akkochan\Akko.Chan.2012\Himitsu.No.Akko.Chan.2012.HDRip.avi
Format : AVI
Format/Info : Audio Video Interleave
File size : 2.07 GiB
Duration : 2h 0mn
Overall bit rate : 2 468 Kbps
Writing application : VirtualDubMod 1.5.10.3 (build 2550/release)
Writing library : VirtualDubMod build 2550/release
Video #0
ID : 0
Format : MPEG-4 Visual
Format profile : Advanced Simple@L5
Format settings, BVOP : 1
Format settings, QPel : No
Format settings, GMC : No warppoints
Format settings, Matrix : Default (MPEG)
Codec ID : XVID
Codec ID/Hint : XviD
Duration : 2h 0mn
Bit rate : 2 071 Kbps
Width : 720 pixels
Height : 304 pixels
Display aspect ratio : 2.35:1
Frame rate : 23.976 fps
Color space : YUV
Chroma subsampling : 4:2:0
Bit depth : 8 bits
Scan type : Progressive
Compression mode : Lossy
Bits/(Pixel*Frame) : 0.395
Stream size : 1.74 GiB (84%)
Writing library : XviD 1.2.0.dev47 (UTC 2006-11-01)
Audio #1
ID : 1
Format : MPEG Audio
Format version : Version 1
Format profile : Layer 3
Mode : Joint stereo
Codec ID : 55
Codec ID/Hint : MP3
Duration : 2h 0mn
Bit rate mode : Constant
Bit rate : 192 Kbps
Channel(s) : 2 channels
Sampling rate : 48.0 KHz
Compression mode : Lossy
Stream size : 165 MiB (8%)
Alignment : Aligned on interleaves
Interleave, duration : 42 ms (1.00 video frame)
Interleave, preload duration : 504 ms
Title : Rus
Audio #2
ID : 2
Format : MPEG Audio
Format version : Version 1
Format profile : Layer 3
Mode : Joint stereo
Mode extension : MS Stereo
Codec ID : 55
Codec ID/Hint : MP3
Duration : 2h 0mn
Bit rate mode : Constant
Bit rate : 192 Kbps
Channel(s) : 2 channels
Sampling rate : 48.0 KHz
Compression mode : Lossy
Stream size : 165 MiB (8%)
Alignment : Aligned on interleaves
Interleave, duration : 42 ms (1.00 video frame)
Interleave, preload duration : 504 ms
Title : Jap
Writing library : LAME3.97
Скриншот с названием фильма# Скриншоты#
Скачать

Скачать торрент! Секрет Акко-тян / Himitsu no Akko-chan / Akko-chan\'s Secret (Ясухиро Кавамура / Yasuhiro Kawamura) [2012 г., Япония, фэнтези, романтика, комедия, драма, HDRip] Rus + Original (Jap) + Subs (Rus, Eng)

Как скачивать? · Что такое торрент? · Рейтинг и ограничения

Сайт не распространяет и не хранит электронные версии произведений, а лишь предоставляет доступ к создаваемому пользователями каталогу ссылок на торрент-файлы, которые содержат только списки хеш-сумм

[Профиль] [ЛС]
Показать сообщения:    
Ответить на тему

Текущее время: Сегодня 21:52

Часовой пояс: GMT + 4



Вы не можете начинать темы
Вы не можете отвечать на сообщения
Вы не можете редактировать свои сообщения
Вы не можете удалять свои сообщения
Вы не можете голосовать в опросах
Вы не можете прикреплять файлы к сообщениям
Вы не можете скачивать файлы