Мишень / The Target / Point Blank / Pyojeok (Юн Хон Сын / Chang) [2014, Южная Корея, боевик, триллер, HDRip] DVO (DeadSno & den904)

Ответить на тему
 
Автор Сообщение

user ®

Стаж: 13 лет

Сообщений: 15071

Пост Пост: #1 от 02-Ноя-2014 01:15

[Цитировать]

Мишень / The Target / Point Blank / Pyojeok
Страна: Южная Корея
Жанр: боевик, триллер
Год выпуска: 2014
Продолжительность: 01:38:26
Перевод: Любительский (двухголосый закадровый) DeadSno & den904
Cубтитры: нет
Режиссер: Юн Хон Сын / Chang
В ролях: Рю Сын Рён, Ю Чжун Сан, Ли Джин Ук, Ким Сон Рён, Чо Ё Чжон, Чо Ын Джи, Рёхеи Отани, Чин Гу
Описание: Бывший наемный убийца, по глупости своего слабоумного брата, разыскивается за убийство, которое он не совершал. Цепочка остросюжетных событий приводит к тому, что ему приходится сразиться не только с коррумпированными полицейскими, но и помочь врачу, спасшему ему жизнь и сохранить жизнь его похищенной жены...
Релиз от -
Сэмпл: http://multi-up.com/1010176
Качество видео: HDRip / BDRip 720p
Формат видео: AVI
Видео: XviD, 920 kbps, 656 х 272 pixels, 23.976 fps
Аудио: MP3, 128 Kbps, 2 channels, 48.0 KHz

MediaInfo
General
Complete name : D:\The.Target.2014.HDRip.745mb.avi
Format : AVI
Format/Info : Audio Video Interleave
File size : 744 MiB
Duration : 1h 38mn
Overall bit rate : 1 057 Kbps
Writing application : VirtualDubMod 1.5.10.3 | www.virtualdub-fr.org || (build 2550/release)
Writing library : VirtualDubMod build 2550/release
Video
ID : 0
Format : MPEG-4 Visual
Format profile : Advanced Simple@L5
Format settings, BVOP : 1
Format settings, QPel : No
Format settings, GMC : No warppoints
Format settings, Matrix : Custom
Codec ID : XVID
Codec ID/Hint : XviD
Duration : 1h 38mn
Bit rate : 920 Kbps
Width : 656 pixels
Height : 272 pixels
Display aspect ratio : 2.40:1
Frame rate : 23.976 fps
Color space : YUV
Chroma subsampling : 4:2:0
Bit depth : 8 bits
Scan type : Progressive
Compression mode : Lossy
Bits/(Pixel*Frame) : 0.215
Stream size : 648 MiB (87%)
Writing library : XviD 73
Audio
ID : 1
Format : MPEG Audio
Format version : Version 1
Format profile : Layer 3
Codec ID : 55
Codec ID/Hint : MP3
Duration : 1h 38mn
Bit rate mode : Constant
Bit rate : 128 Kbps
Channel(s) : 2 channels
Sampling rate : 48.0 KHz
Compression mode : Lossy
Stream size : 90.1 MiB (12%)
Alignment : Aligned on interleaves
Interleave, duration : 42 ms (1.00 video frame)
Interleave, preload duration : 504 ms
Writing library : LAME3.99r
Encoding settings : -m s -V 4 -q 2 -lowpass 17 -b 128
Скриншот c названием фильма Скриншоты
Скачать

Скачать торрент! Мишень / The Target / Point Blank / Pyojeok (Юн Хон Сын / Chang) [2014, Южная Корея, боевик, триллер, HDRip] DVO (DeadSno & den904)

Как скачивать? · Что такое торрент? · Рейтинг и ограничения

Сайт не распространяет и не хранит электронные версии произведений, а лишь предоставляет доступ к создаваемому пользователями каталогу ссылок на торрент-файлы, которые содержат только списки хеш-сумм

[Профиль] [ЛС]
Показать сообщения:    
Ответить на тему

Текущее время: Сегодня 17:34

Часовой пояс: GMT + 4



Вы не можете начинать темы
Вы не можете отвечать на сообщения
Вы не можете редактировать свои сообщения
Вы не можете удалять свои сообщения
Вы не можете голосовать в опросах
Вы не можете прикреплять файлы к сообщениям
Вы не можете скачивать файлы