Еще один малыш каратист / Парень-каратист 4 / The Next Karate Kid (Кристофер Кэйн / Christopher Cain) [1994, драма, мелодрама, спорт, семейный, BDRip 720p] MVO + Sub Eng + Original Eng

Ответить на тему
 
Автор Сообщение

user ®

Стаж: 7 лет 7 месяцев

Сообщений: 20008

Пост Пост: #1 от 02-Ноя-2014 01:15

[Цитировать]

Парень-каратист 4The Next Karate Kid«Who says the good guy has to be a guy?»- Страна: США
Жанр: драма, мелодрама, спорт, семейный
Год выпуска: 1994
Продолжительность: 01:47:21
Перевод: Профессиональный (многоголосый закадровый)
Cубтитры: английские (full, SDH)
Оригинальная аудиодорожка: английский
Режиссер: Кристофер Кэйн / Christopher Cain
В ролях: Пэт Морита, Хилари Суонк, Майкл Айронсайд, Констанс Тауэрс, Крис Конрад, Арсенио Тринидад, Майкл Кавалери, Уолтон Гоггинс, Джим Ишида, Родни Кагеяма
Описание: Мы снова видим мистера Мияги, умудренного жизненным опытом мастера восточных единоборств с острова Окинава, обучавшего в свое время талантливого юношу Дэниела. На этот раз мистер Мияги берет к себе на воспитание и обучение девушку! Его новая ученица — внучка американского солдата, спасшего Мияги жизнь во время Второй мировой войны.У Жюли плохи дела в школе, с матерью она не ладит, она влипла в неприятную историю с хулиганами и обозлилась на весь мир. Мияги поможет Жюли избавиться от чувства гнева и научит её вкладывать максимальную силу в свой удар. Жюли придётся нелегко, ведь помимо своих врагов, школьных хулиганов, малышке-каратистке придётся сразиться с их взрослым вожаком, школьным тренером и злодеем.

MPAA: PG - Рекомендуется присутствие родителей-
Автор рипа: Vikosol

Тип релиза: BDRip 720p [Karate.Kid.IV.Die.naechste.Generation.1994.MULTi.COMPLETE.BLURAY-SMAHD]
Контейнер: MKV
Видео: AVC, 1280x692 (1.850), 14531 kbps, 23,976 fps, 0,684 bpp
Аудио №1: русский / AC3 / 2.0 / 48 kHz / 192 kbps / 16 bit |MVO|
Аудио №2: английский / DTS / 5.1 / 48 kHz / 1510 kbps / 24 bit
Навигация по главам: есть
Формат субтитров: softsub (SRT)

Лог х264
x264 [info]: frame I:1028  Avg QP:17.35  size:177799
x264 [info]: frame P:27943 Avg QP:18.51  size:113218
x264 [info]: frame B:125469 Avg QP:20.07  size: 68686
x264 [info]: consecutive B-frames:  1.0%  0.7%  2.2% 15.0% 16.7% 34.8% 10.9% 14.1%  2.9%  1.0%  0.7%
x264 [info]: mb I  I16..4:  1.3% 87.6% 11.1%
x264 [info]: mb P  I16..4:  0.1% 37.2%  2.1%  P16..4: 15.7% 22.4% 17.3%  2.2%  0.1%    skip: 2.8%
x264 [info]: mb B  I16..4:  0.0% 11.6%  0.6%  B16..8: 31.6% 24.9% 10.7%  direct:12.7%  skip: 7.8%  L0:40.9% L1:38.1% BI:21.0%
x264 [info]: 8x8 transform intra:94.4% inter:56.2%
x264 [info]: coded y,uvDC,uvAC intra: 97.8% 96.3% 85.4% inter: 74.3% 51.0% 20.5%
x264 [info]: i16 v,h,dc,p: 49% 12% 12% 27%
x264 [info]: i8 v,h,dc,ddl,ddr,vr,hd,vl,hu:  9%  7% 17% 10% 12% 12% 11% 11% 12%
x264 [info]: i4 v,h,dc,ddl,ddr,vr,hd,vl,hu: 53%  3%  6%  5%  8%  7%  6%  6%  5%
x264 [info]: i8c dc,h,v,p: 52% 15% 15% 18%
x264 [info]: Weighted P-Frames: Y:6.1% UV:3.8%
x264 [info]: ref P L0: 35.1% 10.3% 19.3%  7.3%  7.2%  4.6%  4.9%  2.5%  2.8%  2.0%  2.3%  1.8%  0.1%  0.0%
x264 [info]: ref B L0: 73.3% 10.5%  5.0%  3.0%  2.2%  1.9%  1.5%  1.0%  0.9%  0.5%  0.2%
x264 [info]: ref B L1: 93.7%  6.3%
x264 [info]: kb/s:14859.29
x264 [total]: encoded 154440 frames, 3.746 fps, 14859.29 kb/s, 11410 MB
MediaInfo
Format                           : Matroska
Format version                   : Version 4 / Version 2
File size                        : 12.4 GiB
Duration                         : 1h 47mn
Overall bit rate                 : 16.6 Mbps
Encoded date                     : UTC 2014-10-31 13:22:55
Writing application              : mkvmerge v6.8.0 ('Theme for Great Cities') 64bit built on Mar  2 2014 21:34:26
Writing library                  : libebml v1.3.0 + libmatroska v1.4.1
Video
ID                               : 1
Format                           : AVC
Format/Info                      : Advanced Video Codec
Format profile                   : High@L4.1
Format settings, CABAC           : Yes
Format settings, ReFrames        : 12 frames
Codec ID                         : V_MPEG4/ISO/AVC
Duration                         : 1h 47mn
Bit rate                         : 14.5 Mbps
Width                            : 1 280 pixels
Height                           : 692 pixels
Display aspect ratio             : 1.850
Frame rate                       : 23.976 fps
Color space                      : YUV
Chroma subsampling               : 4:2:0
Bit depth                        : 8 bits
Scan type                        : Progressive
Bits/(Pixel*Frame)               : 0.684
Stream size                      : 10.9 GiB (88%)
Writing library                  : x264 core 142 r2409+42 04be48a tMod [8-bit@all X86_64]
Encoding settings                : cabac=1 / ref=12 / deblock=1:-3:-3 / analyse=0x3:0x133 / me=umh / subme=11 / psy=1 / fade_compensate=0.00 / psy_rd=1.00:0.00 / mixed_ref=1 / me_range=32 / chroma_me=1 / trellis=2 / 8x8dct=1 / cqm=0 / deadzone=21,11 / fast_pskip=0 / chroma_qp_offset=-2 / threads=6 / lookahead_threads=1 / sliced_threads=0 / nr=0 / decimate=0 / interlaced=0 / bluray_compat=0 / constrained_intra=0 / fgo=0 / bframes=10 / b_pyramid=2 / b_adapt=2 / b_bias=0 / direct=1 / weightb=1 / open_gop=0 / weightp=2 / keyint=250 / keyint_min=23 / scenecut=40 / intra_refresh=0 / rc_lookahead=60 / rc=crf / mbtree=0 / crf=17.0000 / qcomp=0.65 / qpmin=0:0:0 / qpmax=69:69:69 / qpstep=4 / vbv_maxrate=50000 / vbv_bufsize=62500 / crf_max=0.0 / nal_hrd=none / filler=0 / ip_ratio=1.30 / pb_ratio=1.20 / aq=1:0.70 / aq-sensitivity=10.00 / aq-factor=1.00:1.00:1.00 / aq2=0 / aq3=0
Language                         : English
Matrix coefficients              : BT.709
Audio #1
ID                               : 2
Format                           : AC-3
Format/Info                      : Audio Coding 3
Mode extension                   : CM (complete main)
Codec ID                         : A_AC3
Duration                         : 1h 47mn
Bit rate mode                    : Constant
Bit rate                         : 192 Kbps
Channel(s)                       : 2 channels
Channel positions                : Front: L R
Sampling rate                    : 48.0 KHz
Bit depth                        : 16 bits
Compression mode                 : Lossy
Stream size                      : 147 MiB (1%)
Title                            : MVO
Language                         : Russian
Audio #2
ID                               : 3
Format                           : DTS
Format/Info                      : Digital Theater Systems
Codec ID                         : A_DTS
Duration                         : 1h 47mn
Bit rate mode                    : Constant
Bit rate                         : 1 510 Kbps
Channel(s)                       : 6 channels
Channel positions                : Front: L C R, Side: L R, LFE
Sampling rate                    : 48.0 KHz
Bit depth                        : 24 bits
Compression mode                 : Lossy
Stream size                      : 1.13 GiB (9%)
Language                         : English
Text #1
ID                               : 4
Format                           : UTF-8
Codec ID                         : S_TEXT/UTF8
Codec ID/Info                    : UTF-8 Plain Text
Title                            : Full
Language                         : English
Text #2
ID                               : 5
Format                           : UTF-8
Codec ID                         : S_TEXT/UTF8
Codec ID/Info                    : UTF-8 Plain Text
Title                            : SDH
Language                         : English
Menu
00:00:00.000                     : :Chapter 01
00:06:16.875                     : :Chapter 02
00:12:07.976                     : :Chapter 03
00:18:16.135                     : :Chapter 04
00:22:33.184                     : :Chapter 05
00:29:16.546                     : :Chapter 06
00:34:35.529                     : :Chapter 07
00:43:10.085                     : :Chapter 08
00:47:14.497                     : :Chapter 09
00:51:57.154                     : :Chapter 10
00:59:49.960                     : :Chapter 11
01:08:04.204                     : :Chapter 12
01:15:42.246                     : :Chapter 13
01:22:44.125                     : :Chapter 14
01:29:40.750                     : :Chapter 15
01:33:26.015                     : :Chapter 16
Скриншоты Цитата:
Синхронизация звука kaspr
Скачать

Скачать торрент!

Как скачивать? · Что такое торрент? · Рейтинг и ограничения

Сайт не распространяет и не хранит электронные версии произведений, а лишь предоставляет доступ к создаваемому пользователями каталогу ссылок на торрент-файлы, которые содержат только списки хеш-сумм

[Профиль] [ЛС]
Показать сообщения:    
Ответить на тему

Текущее время: Сегодня 02:18

Часовой пояс: GMT + 4



Вы не можете начинать темы
Вы не можете отвечать на сообщения
Вы не можете редактировать свои сообщения
Вы не можете удалять свои сообщения
Вы не можете голосовать в опросах
Вы не можете прикреплять файлы к сообщениям
Вы не можете скачивать файлы