Повелитель иллюзий / Lord of Illusions (Клайв Баркер / Clive Barker) [1995, США, ужасы, триллер, детектив, BDRip 720p] [Театральная версия / Theatrical Cut] 2х AVO (Гаврилов, Живов) + Dub + DVO + Sub Eng + Original Eng

Ответить на тему
 
Автор Сообщение

user ®

Стаж: 7 лет 7 месяцев

Сообщений: 20008

Пост Пост: #1 от 02-Ноя-2014 01:15

[Цитировать]

Повелитель Иллюзий / Lord of Illusions [Театральная версия / Theatrical Cut]
Страна: США
Студия: Seraphim Films
Жанр: ужасы, триллер, детектив
Год выпуска: 1995
Продолжительность: 01:48:52
Перевод 1: Авторский (одноголосый закадровый) Юрий Живов
Перевод 2: Авторский (одноголосый закадровый) Андрей Гаврилов
Перевод 3: Профессиональный (полное дублирование) Варус Видео
Перевод 4: Профессиональный (двухголосый закадровый)
Cубтитры: английские
Оригинальная аудиодорожка: английский
Режиссер: Клайв Баркер / Clive Barker
В ролях: Скотт Бакула /Scott Bakula/, Кевин Дж. О'Коннор /Kevin J. O'Connor/, Фамке Янссен /Famke Janssen/, Винсент Скьявелли /Vincent Schiavelli/, Бэрри Дель Шерман /Barry Del Sherman/, Шила Тауси /Sheila Tousey/, Джоэл Светов /Joel Swetow/, Джозеф Лэтимор /Joseph Latimore/, Сьюзан Трэйлор /Susan Traylor/, Дэниэл Фон Барген /Daniel von Bargen/
Описание:Пустыня Мохаве, 1982 год. Волшебник Свон убивает своего учителя Никса, похитившего его любимую двенадцатилетнюю девочку, чтобы заставить самого способного ученика остаться с ним, а не бросать учебу. Через тринадцать лет частный детектив из Нью-Йорка, имеющий особый дар бороться со всякой чертовщиной, помогает Свону и все той же повзрослевшей девочке, ставшей его женой, бороться с колдуном-учителем, воскрешенным из мертвых одним из других наиболее способных учеников. Учитель, по его собственным словам, хотел стать богом, но передумал, решив просто уничтожить наш мир. Во тьме могилы ему было плохо, но жизнь - еще хуже. Уничтожив мир с помощью Свона, Никс затем собирался остаться с ним в темноте вдвоем, предварительно его же убив. Режиссер сам написал сценарий, не отличающийся особой логикой и убедительностю, но "пурги нагнал" от души - смотрится все очень увлекательно. Спец. эффекты на высоте - "страшно, аж жуть". (Иванов М.)
Третий шедевр Клайва Баркера В не столь далеких 90-х, когда на экраны выходило немыслимое количество фильмов разных жанров и направлений, вышел очередной шедевр хорошо знакомого нам Клайва Баркера — «Повелитель иллюзий».
В этом фильме присутствует масса причудливых, красивых, может, даже необычных декораций, в которых без сомнения чувствуется рука Баркера. Конечно, смотря фильм сейчас, уже и не удивишься, что когда-то такое делали, но если вспомнить имя создателя, то все становится на свои места. Сам сюжет развивается довольно равномерно и в принципе без рывков и бифуркаций, а это уже делает фильм, само собой разумеется, интересным и выдержанным. Над сценарием Клайв поработал, а это видно, потому что нет всякий бредовых действий персонажей и прочих неудовлетворенностей. Может, фильм слегка затянутый, но поверьте, это все компенсируется.
В целом вышел очень хороший фильм ужасов, который интересен, непримитивен и непредсказуем. 10 из 10 (Nolan)
------------------------------------------------------
Оператор: Ронн Шмидт /Ron Schmidt/
Сценарист: Клайв Баркер /Clive Barker/
Продюсер: Клайв Баркер /Clive Barker/, Джоэнн Селлар /Joanne Sellar/
Монтажер: Алан Баумгартен /Alan Baumgarten/
Композитор: Саймон Босуэлл /Simon Boswell/
Художник: Стивен Харди /Stephen Hardie/
Костюмы: Люк Райчли /Luke Reichle/
Исполнительный продюсер: Стив Голин /Steve Golin/, Сигурджон Сигхватссон /Sigurjon Sighvatsson/
Кастинг: Шэрон Хауард-Филд /Sharon Howard-Field/
--------------------------------------------------
КИНОПОИСК. RU
РЕЙТИНГ ФИЛЬМА: 6.363 оценки: 556
6,0/10 from 9 794 users
--------------------------------------------------
Доп. информация: Видеоряд >>> Lord.of.Illusions.1995.Theatrical Cut .720p.BluRay.HDCLUB
двухголосый закадровый: отсюда>>> [url=http://***/forum/viewtopic.php?t=3842953]HDTV 1080[/url]
--------------------------------------------------
СЭМПЛ
--------------------------------------------------
Примечание: Скорость маленькая 50 kb/c, но раздаю круглосуточно.
--------------------------------------------------
Тип релиза: BDRip 720p
Формат видео: MKV
Видео: H.264; 1280x694; 23.976 fps; ~ 7.839 Mbps; 0.368 Bits/Pixel
Аудио 1: Russian - 48 kHz, AC3, Front: L C R, Side: L R, LFE, 6сh, ~384 kbps - Юрий Живов
Аудио 2: Russian - 48 kHz, AC3, 2/0 (L,R) 2ch, ~ 192 kbps - Андрей Гаврилов
Аудио 3: Russian - 48 kHz, AC3, 2/0 (L,R) 2ch, ~ 192 kbps - DUB
Аудио 4: Russian - 48 kHz, AC3, 2/0 (L,R) 2ch, 192 kbps, - DVO
Аудио 5: English - 48 kHz, DTS, 2/0 (L,R) 2ch, 1510 kbps, - Original
Формат субтитров: (*UTF-8)
MediaInfo
General
Complete name : F:\EXCLUZIVE=19\ПОВЕЛИТЕЛЬ ИЛЛЮЗИЙ=Lord of illusions\Lord.of.Illusions.1995.HDCLUB\Lord.of.Illusions.1995.720p.BluRay.HDCLUB.mkv
Format : Matroska
File size : 8.00 GiB
Duration : 1h 48mn
Overall bit rate : 10.5 Mbps
Movie name : Lord of Illusions (1995) - Release for HDCLUB
Encoded date : UTC 2014-10-31 01:55:32
Writing application : mkvmerge v3.3.0 ('Language') built on Mar 24 2010 14:59:24
Writing library : libebml v0.8.0 + libmatroska v0.9.0
Video
ID : 1
Format : AVC
Format/Info : Advanced Video Codec
Format profile : High@L4.1
Format settings, CABAC : Yes
Format settings, ReFrames : 9 frames
Muxing mode : Container profile=Unknown@4.1
Codec ID : V_MPEG4/ISO/AVC
Duration : 1h 48mn
Bit rate : 7 839 Kbps
Width : 1 280 pixels
Height : 694 pixels
Display aspect ratio : 16:9
Frame rate : 23.976 fps
Color space : YUV
Chroma subsampling : 4:2:0
Bit depth : 8 bits
Scan type : Progressive
Bits/(Pixel*Frame) : 0.368
Stream size : 5.96 GiB (75%)
Title : Lord.of.Illusions.1995.HDCLUB
Writing library : x264 core 125 r2200 999b753
Encoding settings : cabac=1 / ref=9 / deblock=1:-3:-3 / analyse=0x3:0x133 / me=umh / subme=11 / psy=1 / psy_rd=1.10:0.00 / mixed_ref=1 / me_range=32 / chroma_me=1 / trellis=2 / 8x8dct=1 / cqm=0 / deadzone=21,11 / fast_pskip=0 / chroma_qp_offset=-2 / threads=12 / lookahead_threads=2 / sliced_threads=0 / nr=0 / decimate=1 / interlaced=0 / bluray_compat=0 / constrained_intra=0 / bframes=8 / b_pyramid=2 / b_adapt=2 / b_bias=0 / direct=3 / weightb=1 / open_gop=0 / weightp=2 / keyint=250 / keyint_min=24 / scenecut=40 / intra_refresh=0 / rc_lookahead=40 / rc=crf / mbtree=0 / crf=16.0 / qcomp=0.60 / qpmin=0 / qpmax=69 / qpstep=4 / vbv_maxrate=50000 / vbv_bufsize=62500 / crf_max=0.0 / nal_hrd=none / ip_ratio=1.40 / pb_ratio=1.30 / aq=1:0.80
Language : English
Audio #1
ID : 2
Format : AC-3
Format/Info : Audio Coding 3
Mode extension : CM (complete main)
Codec ID : A_AC3
Duration : 1h 48mn
Bit rate mode : Constant
Bit rate : 384 Kbps
Channel(s) : 6 channels
Channel positions : Front: L C R, Side: L R, LFE
Sampling rate : 48.0 KHz
Stream size : 299 MiB (4%)
Title : AVO Живов @ AC3 6ch. @ 384 kbps
Language : Russian
Audio #2
ID : 3
Format : AC-3
Format/Info : Audio Coding 3
Mode extension : CM (complete main)
Codec ID : A_AC3
Duration : 1h 48mn
Bit rate mode : Constant
Bit rate : 192 Kbps
Channel(s) : 2 channels
Channel positions : Front: L R
Sampling rate : 48.0 KHz
Stream size : 150 MiB (2%)
Title : AVO Гаврилов @ AC3 2ch. @ 192 kbps
Language : Russian
Audio #3
ID : 4
Format : AC-3
Format/Info : Audio Coding 3
Mode extension : CM (complete main)
Codec ID : A_AC3
Duration : 1h 48mn
Bit rate mode : Constant
Bit rate : 192 Kbps
Channel(s) : 2 channels
Channel positions : Front: L R
Sampling rate : 48.0 KHz
Stream size : 150 MiB (2%)
Title : DUB- Варус Видео @ AC3 2ch. @ 192 kbps
Language : Russian
Audio #4
ID : 5
Format : AC-3
Format/Info : Audio Coding 3
Mode extension : CM (complete main)
Codec ID : A_AC3
Duration : 1h 48mn
Bit rate mode : Constant
Bit rate : 192 Kbps
Channel(s) : 2 channels
Channel positions : Front: L R
Sampling rate : 48.0 KHz
Stream size : 150 MiB (2%)
Title : DVO @ AC3 2ch. @ 192 kbps
Language : Russian
Audio #5
ID : 6
Format : DTS
Format/Info : Digital Theater Systems
Codec ID : A_DTS
Duration : 1h 48mn
Bit rate mode : Constant
Bit rate : 1 510 Kbps
Channel(s) : 2 channels
Channel positions : Front: L R
Sampling rate : 48.0 KHz
Bit depth : 24 bits
Stream size : 1.15 GiB (14%)
Title : Original @ DTS 2 ch. @ 1510 kbps
Language : English
Text
ID : 7
Format : UTF-8
Codec ID : S_TEXT/UTF8
Codec ID/Info : UTF-8 Plain Text
Title : (* UTF-8)
Language : English
Menu
00:00:00.000 : :00:00:00.000
00:13:44.322 : :00:13:44.322
00:28:51.186 : :00:28:51.186
00:43:08.626 : :00:43:08.626
00:55:24.403 : :00:55:24.403
01:08:47.622 : :01:08:47.622
01:21:04.149 : :01:21:04.149
01:34:33.083 : :01:34:33.083
Скриншот c названием фильма Скриншоты [url=http://***/forum/search.php?uid=13012305&myt=1]Мои раздачи фильмов в Авторском переводе[/url]
Скачать

Скачать торрент!

Как скачивать? · Что такое торрент? · Рейтинг и ограничения

Сайт не распространяет и не хранит электронные версии произведений, а лишь предоставляет доступ к создаваемому пользователями каталогу ссылок на торрент-файлы, которые содержат только списки хеш-сумм

[Профиль] [ЛС]
Показать сообщения:    
Ответить на тему

Текущее время: Сегодня 20:21

Часовой пояс: GMT + 4



Вы не можете начинать темы
Вы не можете отвечать на сообщения
Вы не можете редактировать свои сообщения
Вы не можете удалять свои сообщения
Вы не можете голосовать в опросах
Вы не можете прикреплять файлы к сообщениям
Вы не можете скачивать файлы