Молодежь / Young Ones (Джейк Пэлтроу / Jake Paltrow) [2014, США, Фантастика, боевик, драма, WEB-DLRip] VO (datynet)

Ответить на тему
 
Автор Сообщение

user ®

Стаж: 7 лет 7 месяцев

Сообщений: 20008

Пост Пост: #1 от 01-Ноя-2014 06:10

[Цитировать]

Молодежь / Young Ones
Страна: США
Жанр: Фантастика, боевик, драма
Год выпуска: 2014
Продолжительность: 01:39:53
Перевод: Одноголосый закадровый datynet по тексту Janetta
Cубтитры: нет
Режиссер: Джейк Пэлтроу / Jake Paltrow
В ролях: Элль Фэннинг, Николас Холт, Майкл Шеннон, Коди Смит-МакФи, Айми Маллинз, Энди МакФи, Алекс МакГрегор, Роберт Хоббс, Дэвид Батлер, Лиа О’Прей
Описание: Когда Эрнест и его сын Жером потратили последние средства семьи на покупку роботизированного мула, для того чтобы доставлять продовольственные пайки для группы рабочих, которые бурят скважины для воды, они никогда не думали, что так сильно изменят свое будущее. Флем строит планы относительно дочери Эрнеста — Мэри и надеется вернуть себе земли, которыми владел его отец в период расцвета промышленного сельского хозяйства в начале XXI века. Когда желания Флема осуществляются путем блестящего использования лжи и манипулирования, происходит ряд событий, которые изменят их молодую жизнь навсегда и Жером вынужден будет сделать выбор, который не должен делать ни один ребенок.

Качество видео: WEB-DLRip
Формат видео: AVI
Видео: 720x304 (2.37:1), 23.976 fps, XviD build 73 ~1752 kbps avg, 0.33 bit/pixel
Аудио: 44.1 kHz, AC3 Dolby Digital, 2/0 (L,R) ch, ~192 kbps
MediaInfo
General
Complete name : E:\Films\New\Molodezhb.2014.avi
Format : AVI
Format/Info : Audio Video Interleave
File size : 1.36 GiB
Duration : 1h 39mn
Overall bit rate : 1 954 Kbps
Writing application : VirtualDubMod 1.5.10.3 | www.virtualdub-fr.org || (build 2550/release)
Writing library : VirtualDubMod build 2550/release
Video
ID : 0
Format : MPEG-4 Visual
Format profile : Advanced Simple@L5
Format settings, BVOP : 1
Format settings, QPel : No
Format settings, GMC : No warppoints
Format settings, Matrix : Custom
Codec ID : XVID
Codec ID/Hint : XviD
Duration : 1h 39mn
Bit rate : 1 753 Kbps
Width : 720 pixels
Height : 304 pixels
Display aspect ratio : 2.35:1
Frame rate : 23.976 fps
Color space : YUV
Chroma subsampling : 4:2:0
Bit depth : 8 bits
Scan type : Progressive
Compression mode : Lossy
Bits/(Pixel*Frame) : 0.334
Stream size : 1.22 GiB (90%)
Writing library : XviD 73
Audio
ID : 1
Format : AC-3
Format/Info : Audio Coding 3
Mode extension : CM (complete main)
Format settings, Endianness : Big
Codec ID : 2000
Duration : 1h 39mn
Bit rate mode : Constant
Bit rate : 192 Kbps
Channel(s) : 2 channels
Channel positions : Front: L R
Sampling rate : 44.1 KHz
Bit depth : 16 bits
Compression mode : Lossy
Stream size : 137 MiB (10%)
Alignment : Split accross interleaves
Interleave, duration : 42 ms (1.00 video frame)
Interleave, preload duration : 500 ms
Скриншоты
Скачать

Скачать торрент!

Как скачивать? · Что такое торрент? · Рейтинг и ограничения

Сайт не распространяет и не хранит электронные версии произведений, а лишь предоставляет доступ к создаваемому пользователями каталогу ссылок на торрент-файлы, которые содержат только списки хеш-сумм

[Профиль] [ЛС]
Показать сообщения:    
Ответить на тему

Текущее время: Сегодня 12:55

Часовой пояс: GMT + 4



Вы не можете начинать темы
Вы не можете отвечать на сообщения
Вы не можете редактировать свои сообщения
Вы не можете удалять свои сообщения
Вы не можете голосовать в опросах
Вы не можете прикреплять файлы к сообщениям
Вы не можете скачивать файлы