Не вижу зла 2 / See No Evil 2 (Джен Соска / Jen Soska, Сильвия Соска / Sylvia Soska) [2014, США, Lionsgate, WWE Studios, Ужасы, HDRip] MVO

Ответить на тему
 
Автор Сообщение

user ®

Стаж: 7 лет 7 месяцев

Сообщений: 20008

Пост Пост: #1 от 31-Окт-2014 12:20

[Цитировать]

Не вижу зла 2 / See No Evil 2
Страна: США, Lionsgate, WWE Studios
Жанр: Ужасы
Год выпуска: 2014
Продолжительность: 01:30:12
Перевод: Любительский (многоголосый закадровый)[Антонио, Александр Харченко, Анастасия Домина, den904, DeadSno и Парниша]
Cубтитры: нет
Режиссер: Джен Соска / Jen Soska, Сильвия Соска / Sylvia Soska
В ролях: Глен Джейкобс (Kane), Даниэль Харрис, Кэтрин Изабель, Каж-Эрик Эриксен, Челан Симмонс, Грейстон Холт, Ли Мадждуб, Майкл Эклунд, Риз Александр, Келли-Рут Мерсье
Описание: Кошмар, закончившийся в первом фильме, продолжается: Джейкоб Гуднайт восстает из мертвых в городском морге, после смертельной резни в отеле «Блэкуэлл». В этом зловещем подземном хранилище для мертвых группе студентов придется бороться с невменяемым психопатом, который вновь начинает забирать их одного за другим.
Качество видео: HDRip
Формат видео: AVI
Видео: 720x400 (1.80:1),23.976 fps,XviD build 73,1827 kbps avg,0.26 bit/pixel
Аудио: 48 kHz,AC3 Dolby Digital,6 ch,448 kbps


MediaInfo
Complete name : D:\Раздачи\не вижу зла 2 HDRip.avi
Format : AVI
Format/Info : Audio Video Interleave
File size : 1.44 GiB
Duration : 1h 30mn
Overall bit rate : 2 285 Kbps
Writing application : VirtualDubMod 1.5.10.3 | www.virtualdub-fr.org || (build 2550/release)
Writing library : VirtualDubMod build 2550/release
Video
ID : 0
Format : MPEG-4 Visual
Format profile : Advanced Simple@L5
Format settings, BVOP : 1
Format settings, QPel : No
Format settings, GMC : No warppoints
Format settings, Matrix : Custom
Codec ID : XVID
Codec ID/Hint : XviD
Duration : 1h 30mn
Bit rate : 1 827 Kbps
Width : 720 pixels
Height : 400 pixels
Display aspect ratio : 16:9
Frame rate : 23.976 fps
Color space : YUV
Chroma subsampling : 4:2:0
Bit depth : 8 bits
Scan type : Progressive
Compression mode : Lossy
Bits/(Pixel*Frame) : 0.265
Stream size : 1.15 GiB (80%)
Writing library : XviD 73
Audio
ID : 1
Format : AC-3
Format/Info : Audio Coding 3
Mode extension : CM (complete main)
Format settings, Endianness : Big
Codec ID : 2000
Duration : 1h 30mn
Bit rate mode : Constant
Bit rate : 448 Kbps
Channel(s) : 6 channels
Channel positions : Front: L C R, Side: L R, LFE
Sampling rate : 48.0 KHz
Bit depth : 16 bits
Compression mode : Lossy
Delay relative to video : 25ms
Stream size : 289 MiB (20%)
Alignment : Split accross interleaves
Interleave, duration : 42 ms (1.00 video frame)
Interleave, preload duration : 500 ms
Скриншот c названием фильма Скриншоты
Скачать

Скачать торрент!

Как скачивать? · Что такое торрент? · Рейтинг и ограничения

Сайт не распространяет и не хранит электронные версии произведений, а лишь предоставляет доступ к создаваемому пользователями каталогу ссылок на торрент-файлы, которые содержат только списки хеш-сумм

[Профиль] [ЛС]
Показать сообщения:    
Ответить на тему

Текущее время: Сегодня 00:39

Часовой пояс: GMT + 4



Вы не можете начинать темы
Вы не можете отвечать на сообщения
Вы не можете редактировать свои сообщения
Вы не можете удалять свои сообщения
Вы не можете голосовать в опросах
Вы не можете прикреплять файлы к сообщениям
Вы не можете скачивать файлы