Странная и удивительная любовь / Ajab Gazabb Love (Санджай Гадхви / Sanjay Gadhvi) [2012, Индия, Комедия, мелодрама, DVDScrRip] Rus Sub +Original

Ответить на тему
 
Автор Сообщение

user ®

Стаж: 13 лет

Сообщений: 15070

Пост Пост: #1 от 31-Окт-2014 01:10

[Цитировать]

Странная и удивительная любовь / Ajab Gazabb Love*в любви, как на войне, все средства хороши* -Страна: Индия
Жанр: Комедия, мелодрама
Год выпуска: 2012
Продолжительность: 01:53:57--Язык: Хинди
Перевод: Субтитры
Cубтитры: Русские
Перевод и редакция: Honey&Haseena--Режиссер: Санджай Гадхви / Sanjay Gadhvi-В ролях: Джекки Бхагнани, Арджун Рампал, Нидхи Суббайя, Даршан Джаривала, Кирон Кхер, Аршад Варси, Ануджа Сачдева--Описание: Раджвир Гревал - сын мультимиллионера и автомобильного магната Яшвардхана Гревала. Он талантливый инженер, занимается проектированием машины нового поколения. Однажды, направляясь в офис, чтобы обсудить детали автомобиля, он встречает Мадхури и без памяти влюбляется в неё. Но вот одна беда: его избранница на дух не переносит богатых людей. Желая завоевать сердце любимой, Раджив без каких-либо особых раздумий выдаёт себя за бедного и простого парня, в семье которого отец – продавец бананов, мать – слепая швея, брат – законченный алкоголик, а невестка – посудомойщица…(c) Honey-- | --Качество видео: DVDScrRip
Формат видео: AVI-Видео: 640x288 (2.22:1), 23.976 fps, XviD MPEG-4 ~797 kbps avg, 0.18 bit/pixel
Аудио: 32 kHz, MPEG Layer 3, 2 ch, ~80.00 kbps
Формат субтитров: hardsub (неотключаемые, вшитые в картинку)--Сэмпл / Sample--Pелиз от: Honey&Haseena (спасибо!)
Примечание: Фильм переводился исключительно с хинди языка. Поэтому, просим строго не судить!-- -
-
-Скриншот с названием:
-
Скриншоты:
-
MI
General
Complete name : D:\[DVDRip]\[Rus Sub]\Udar.2014.DVDRip.XviD.HoneyHaseena.avi
Format : AVI
Format/Info : Audio Video Interleave
Format profile : OpenDML
File size : 2.39 GiB
Duration : 2h 26mn
Overall bit rate : 2 329 Kbps
Writing application : VirtualDubMod 1.5.10.2 (build 2542/release)
Writing library : VirtualDubMod build 2542/release
Video
ID : 0
Format : MPEG-4 Visual
Format profile : Advanced Simple@L5
Format settings, BVOP : 1
Format settings, QPel : No
Format settings, GMC : No warppoints
Format settings, Matrix : Default (H.263)
Muxing mode : Packed bitstream
Codec ID : XVID
Codec ID/Hint : XviD
Duration : 2h 26mn
Bit rate : 1 999 Kbps
Width : 720 pixels
Height : 304 pixels
Display aspect ratio : 2.35:1
Frame rate : 23.976 fps
Color space : YUV
Chroma subsampling : 4:2:0
Bit depth : 8 bits
Scan type : Progressive
Compression mode : Lossy
Bits/(Pixel*Frame) : 0.381
Stream size : 2.05 GiB (86%)
Writing library : XviD 1.1.2 (UTC 2006-11-01)
Audio
ID : 1
Format : AC-3
Format/Info : Audio Coding 3
Mode extension : CM (complete main)
Format settings, Endianness : Big
Codec ID : 2000
Duration : 2h 26mn
Bit rate mode : Constant
Bit rate : 320 Kbps
Channel count : 6 channels
Channel positions : Front: L C R, Side: L R, LFE
Sampling rate : 48.0 KHz
Bit depth : 16 bits
Compression mode : Lossy
Stream size : 336 MiB (14%)
Alignment : Split accross interleaves
Interleave, duration : 64 ms (1.53 video frames)
Interleave, preload duration : 500 ms
Скачать

Скачать торрент! Странная и удивительная любовь / Ajab Gazabb Love (Санджай Гадхви / Sanjay Gadhvi) [2012, Индия, Комедия, мелодрама, DVDScrRip] Rus Sub +Original

Как скачивать? · Что такое торрент? · Рейтинг и ограничения

Сайт не распространяет и не хранит электронные версии произведений, а лишь предоставляет доступ к создаваемому пользователями каталогу ссылок на торрент-файлы, которые содержат только списки хеш-сумм

[Профиль] [ЛС]
Показать сообщения:    
Ответить на тему

Текущее время: Сегодня 16:27

Часовой пояс: GMT + 4



Вы не можете начинать темы
Вы не можете отвечать на сообщения
Вы не можете редактировать свои сообщения
Вы не можете удалять свои сообщения
Вы не можете голосовать в опросах
Вы не можете прикреплять файлы к сообщениям
Вы не можете скачивать файлы