Отрочество / Boyhood (Ричард Линклейтер / Richard Linklater) [2014 г., США, драма, HDRip] VO (Lord32x)

Ответить на тему
 
Автор Сообщение

user ®

Стаж: 7 лет 7 месяцев

Сообщений: 20008

Пост Пост: #1 от 31-Окт-2014 01:10

[Цитировать]

Отрочество / Boyhood_____________________________________________________________________ Год выпуска: 2014
Производство: США
Жанр: драма
Перевод: Одноголосый закадровый [Lord32x]
Субтитры: Отсутствуют
Оригинальная дорожка: Отсутствует
Продолжительность: 02:45:38
Режиссер: Ричард Линклейтер / Richard Linklater
В ролях: Эллар Колтрейн, Патриция Аркетт, Итэн Хоук, Элайджа Смит, Лорелей Линклэйтер, Стивен Честер Принц, Бонни Кросс, Либби Виллари, Марко Перелья, Джэми Ховард
Описание: Многолетний проект позволит проследить развитие реального человека с момента рождения. Уникальный шанс увидеть год за годом взросление ребенка, жизнь его родителей и изменения окружающего мира в целом.

Качество видео: HDRip [сэмпл]
Видеокодек: XviD
Аудиокодек: AC3
Видео: 720x384 (1.88:1), 23.976 fps, XviD build 50, 1968 kbps avg, 0.30 bit/pixel
Аудио: 48 kHz, AC3 Dolby Digital, 2/0 (L,R) ch, 384 kbps
Скриншоты MediaInfo

Общее
Полное имя : D:\Отрочество.avi
Формат : AVI
Формат/Информация : Audio Video Interleave
Профиль формата : OpenDML
Размер файла : 2,73 Гбайт
Продолжительность : 2 ч. 45 м.
Общий поток : 2359 Кбит/сек
Программа кодирования : VirtualDubMod 1.5.10.2 (build 2540/release)
Библиотека кодирования : VirtualDubMod build 2540/release
Видео
Идентификатор : 0
Формат : MPEG-4 Visual
Профиль формата : Advanced Simple@L5
Параметр BVOP формата : 2
Параметр QPel формата : Нет
Параметр GMC формата : Без точки перехода
Параметр матрицы формата : Default (MPEG)
Идентификатор кодека : XVID
Идентификатор кодека/Подсказка : XviD
Продолжительность : 2 ч. 45 м.
Битрейт : 1965 Кбит/сек
Ширина : 720 пикселей
Высота : 384 пикселя
Соотношение сторон : 1,85:1
Частота кадров : 23,976 кадра/сек
Цветовое пространство : YUV
Субдискретизация насыщенности : 4:2:0
Битовая глубина : 8 бит
Тип развёртки : Прогрессивная
Метод сжатия : С потерями
Бит/(Пиксели*Кадры) : 0.296
Размер потока : 2,27 Гбайт (83%)
Библиотека кодирования : XviD 1.2.1 (UTC 2008-12-04)
Аудио
Идентификатор : 1
Формат : AC-3
Формат/Информация : Audio Coding 3
Расширение режима : CM (complete main)
Параметр Endianness формата : Big
Идентификатор кодека : 2000
Продолжительность : 2 ч. 45 м.
Вид битрейта : Постоянный
Битрейт : 384 Кбит/сек
Каналы : 2 канала
Расположение каналов : Front: L R
Частота : 48,0 КГц
Битовая глубина : 16 бит
Метод сжатия : С потерями
Размер потока : 455 Мбайт (16%)
Выравнивание : Разделение по промежуткам
Продолжительность промежутка : 42 мс. (1,00 видеокадр)
Время предзагрузки промежутка : 500 мс.
Скачать

Скачать торрент!

Как скачивать? · Что такое торрент? · Рейтинг и ограничения

Сайт не распространяет и не хранит электронные версии произведений, а лишь предоставляет доступ к создаваемому пользователями каталогу ссылок на торрент-файлы, которые содержат только списки хеш-сумм

[Профиль] [ЛС]
Показать сообщения:    
Ответить на тему

Текущее время: Сегодня 03:52

Часовой пояс: GMT + 4



Вы не можете начинать темы
Вы не можете отвечать на сообщения
Вы не можете редактировать свои сообщения
Вы не можете удалять свои сообщения
Вы не можете голосовать в опросах
Вы не можете прикреплять файлы к сообщениям
Вы не можете скачивать файлы