Огонь из преисподней / Fire Down Below (Феликс Энрикез Алькала / Felix Enriquez Alcala) [1997, США, боевик, триллер, HDTV 1080i] Dub (Мост-Видео) + MVO (НТВ) + AVO (Визгунов) + Sub Rus, Eng + Original Eng

Ответить на тему
 
Автор Сообщение

user ®

Стаж: 7 лет 7 месяцев

Сообщений: 20008

Пост Пост: #1 от 30-Окт-2014 18:50

[Цитировать]

Огонь из преисподней
Fire Down Below
-Год выпуска: 1997
Страна: США
Бюджет: $ 60 000 000
Жанр: Боевик, Триллер
Продолжительность: 1:40:18
Перевод 1: Профессиональный (полное дублирование)
Перевод 2: Профессиональный (многоголосый закадровый) НТВ
Перевод 3: Авторский (одноголосый закадровый) С.Визгунов
Субтитры: русские, английские
Оригинальная аудиодорожка: английский-Режиссер: Феликс Энрикез Алькала / Felix Enriquez Alcala
В ролях: Стивен Сигал /Steven Seagal/, Мардж Хелгенбергер /Marg Helgenberger/, Крис Кристофферсон /Kris Kristofferson/, Хэрри Дин Стэнтон /Harry Dean Stanton/, Левон Хелм /Levon Helm/, Стивен Лэнг /Stephen Lang/, Марк Колли /Mark Collie/, Алекс Харви /Alex Harvey/, Роберт Риджели /Robert Ridgely/, Брэд Хант /Brad Hunt/, Эд Брюс /Ed Bruce/-Описание: В Аппалачах, в живописной долине, разворачивается действие этого жесткого боевика. Беспринципный магнат и его банда хозяйничают в долине, разрушая в погоне за прибылью богатейшую природу района. И, самое страшное, у них на складах хранятся тонны химического ядовитого продукта, способного уничтожить половину всего живого в долине. Местные жители запуганы, чиновники подкуплены, а инспектор по охране окружающей среды убит… На место действия прибывает секретный агент Джек Таггерт с целью выяснить обстановку и рассчитаться сполна с магнатом и его головорезами.- -Семпл: http://multi-up.com/1009191-Качество: HDTV 1080i (Спутниковый телеканал "Calle 13 Universal")
Формат: MKV
Видео: H264 / 6795kbps / 1920x1080 / 25 fps
Аудио 1: AC3 Dolby Digital / 5.1 / 48 kHz / 448 kbps (Дубляж "Мост-Видео")
Аудио 2: AC3 Dolby Digital / 2.0 / 48 kHz / 192 kbps (Многоголосый "НТВ")
Аудио 3: AC3 Dolby Digital / 2.0 / 48 kHz / 192 kbps (Авторский С.Визгунов)
Аудио 4: АС3 Dolby Digital / 5.1 / 48 kHz / 384 kbps (Оригинал)
Формат субтитров: softsub (SRT)-

MediaInfo
General
Unique ID : 207171559710107338588342092703041528630 (0x9BDBCA82103CBCA4817EAFC220FB2336)
Complete name : Fire-Down-Below-1997-HDTV-1080-Rus-Eng.mkv
Format : Matroska
Format version : Version 4 / Version 2
File size : 5.72 GiB
Duration : 1h 40mn
Overall bit rate : 8 158 Kbps
Encoded date : UTC 2014-10-28 04:23:20
Writing application : mkvmerge v7.3.0 ('Nouages') 32bit built on Oct 22 2014 18:44:01
Writing library : libebml v1.3.0 + libmatroska v1.4.1
_STATISTICS_WRITING_APP : mkvmerge v7.3.0 ('Nouages') 32bit built on Oct 22 2014 18:44:01
_STATISTICS_WRITING_DATE_UTC : 2014-10-28 04:23:20
_STATISTICS_TAGS : BPS DURATION NUMBER_OF_FRAMES NUMBER_OF_BYTES
DURATION : 01:38:57.869000000
NUMBER_OF_FRAMES : 1027
NUMBER_OF_BYTES : 35610
Video
ID : 1
Format : AVC
Format/Info : Advanced Video Codec
Format profile : High@L4.0
Format settings, CABAC : Yes
Format settings, ReFrames : 4 frames
Format settings, GOP : M=8, N=24
Codec ID : V_MPEG4/ISO/AVC
Bit rate : 6 779 Kbps
Width : 1 920 pixels
Height : 1 080 pixels
Display aspect ratio : 16:9
Frame rate mode : Variable
Original frame rate : 25.000 fps
Color space : YUV
Chroma subsampling : 4:2:0
Bit depth : 8 bits
Scan type : MBAFF
Scan order : Top Field First
Title : Огонь Из Преисподней / Fire down below (1997) 1080i HDTV
Language : English
Default : Yes
Forced : No
Color primaries : BT.709
Transfer characteristics : BT.709
Matrix coefficients : BT.709
_STATISTICS_WRITING_APP : mkvmerge v7.3.0 ('Nouages') 32bit built on Oct 22 2014 18:44:01
_STATISTICS_WRITING_DATE_UTC : 2014-10-28 04:23:20
_STATISTICS_TAGS : BPS DURATION NUMBER_OF_FRAMES NUMBER_OF_BYTES
DURATION : 01:40:13.880000000
NUMBER_OF_FRAMES : 156384
NUMBER_OF_BYTES : 5220329024
Audio #1
ID : 2
Format : AC-3
Format/Info : Audio Coding 3
Mode extension : CM (complete main)
Format settings, Endianness : Big
Codec ID : A_AC3
Duration : 1h 40mn
Bit rate mode : Constant
Bit rate : 448 Kbps
Channel(s) : 6 channels
Channel positions : Front: L C R, Side: L R, LFE
Sampling rate : 48.0 KHz
Bit depth : 16 bits
Compression mode : Lossy
Delay relative to video : 16ms
Stream size : 321 MiB (5%)
Title : Русский : AC3 Dolby Digital / 5.1 / 48 kHz / 448 kbps / DN-4dB - (Дубляж "Мост-Видео")
Language : Russian
Default : No
Forced : No
Audio #2
ID : 3
Format : AC-3
Format/Info : Audio Coding 3
Mode extension : CM (complete main)
Format settings, Endianness : Big
Codec ID : A_AC3
Duration : 1h 40mn
Bit rate mode : Constant
Bit rate : 192 Kbps
Channel(s) : 2 channels
Channel positions : Front: L R
Sampling rate : 48.0 KHz
Bit depth : 16 bits
Compression mode : Lossy
Delay relative to video : 16ms
Stream size : 138 MiB (2%)
Title : Русский : AC3 Dolby Digital / 2.0 / 48 kHz / 192 kbps / DN-4dB - (Многоголосый "НТВ")
Language : Russian
Default : No
Forced : No
Audio #3
ID : 4
Format : AC-3
Format/Info : Audio Coding 3
Mode extension : CM (complete main)
Format settings, Endianness : Big
Codec ID : A_AC3
Duration : 1h 40mn
Bit rate mode : Constant
Bit rate : 192 Kbps
Channel(s) : 2 channels
Channel positions : Front: L R
Sampling rate : 48.0 KHz
Bit depth : 16 bits
Compression mode : Lossy
Delay relative to video : 16ms
Stream size : 138 MiB (2%)
Title : Русский : AC3 Dolby Digital / 2.0 / 48 kHz / 192 kbps / DN-4dB - (Авторский С.Визгунов)
Language : Russian
Default : No
Forced : No
Audio #4
ID : 5
Format : AC-3
Format/Info : Audio Coding 3
Mode extension : CM (complete main)
Format settings, Endianness : Big
Codec ID : A_AC3
Duration : 1h 40mn
Bit rate mode : Constant
Bit rate : 384 Kbps
Channel(s) : 6 channels
Channel positions : Front: L C R, Side: L R, LFE
Sampling rate : 48.0 KHz
Bit depth : 16 bits
Compression mode : Lossy
Delay relative to video : 16ms
Stream size : 276 MiB (5%)
Title : Английский : АС3 Dolby Digital / 5.1 / 48 kHz / 384 kbps / DN-4dB - (Оригинал)
Language : English
Default : Yes
Forced : No
Text #1
ID : 6
Format : UTF-8
Codec ID : S_TEXT/UTF8
Codec ID/Info : UTF-8 Plain Text
Title : Русские
Language : Russian
Default : Yes
Forced : No
Text #2
ID : 7
Format : UTF-8
Codec ID : S_TEXT/UTF8
Codec ID/Info : UTF-8 Plain Text
Title : Английские
Language : English
Default : No
Forced : No
Скриншоты
Скачать

Скачать торрент!

Как скачивать? · Что такое торрент? · Рейтинг и ограничения

Сайт не распространяет и не хранит электронные версии произведений, а лишь предоставляет доступ к создаваемому пользователями каталогу ссылок на торрент-файлы, которые содержат только списки хеш-сумм

[Профиль] [ЛС]
Показать сообщения:    
Ответить на тему

Текущее время: Сегодня 00:03

Часовой пояс: GMT + 4



Вы не можете начинать темы
Вы не можете отвечать на сообщения
Вы не можете редактировать свои сообщения
Вы не можете удалять свои сообщения
Вы не можете голосовать в опросах
Вы не можете прикреплять файлы к сообщениям
Вы не можете скачивать файлы