Штурм Белого дома / White House Down (Роланд Эммерих / Roland Emmerich) [2013, США, боевик, триллер, BDRemux 1080p] Dub + Ukr Dub + AVO Володарский + Original Eng + Sub Rus, Eng

Ответить на тему
 
Автор Сообщение

user ®

Стаж: 7 лет 7 месяцев

Сообщений: 20008

Пост Пост: #1 от 30-Окт-2014 18:50

[Цитировать]

Штурм Белого дома / White House Down- Страна: США
Жанр: боевик, триллер
Год выпуска: 2013
Продолжительность: 02:11:32
Перевод: Профессиональный (дублированный)
+ Авторский одноголосый закадровый | Володарский
Cубтитры: русские, английские
Оригинальная аудиодорожка: английский-Режиссер: Роланд Эммерих / Roland Emmerich-В ролях: Ченнинг Татум, Джейми Фокс, Мэгги Джилленхол, Джейсон Кларк, Ричард Дженкинс, Джеймс Вудс, Джои Кинг, Николас Райт, Джимми Симпсон, Майкл Мерфи.-Описание: Джон Кейл долгое время проработал в полиции, но его главная мечта — устроиться в службу охраны президента. Несмотря на то, что он проваливает вступительные экзамены, Джон не собирается останавливаться и пытается сделает все возможное для осуществления своей мечты. Благодаря своей целеустремленности Джон получает второй шанс, и его приглашают в Белый дом на собеседование. Вместе с собой он берет свою дочь, которой должны устроить экскурсию по самому известному зданию в мире. Однако, отправившись на собеседование, Кейл даже не подозревал, что ждет его впереди. Террористическая группа начинает атаку на Вашингтон, главной целью которой является захват Белого дома и уничтожение президента. Оказавшись в эпицентре боевых действий, Джон вынужден спасть не только свою дочь, но и главу государства.-Тип релиза: BDRemux 1080p | EUR
Контейнер: MKV | Sample
Видео: 1920x1080 (16:9), 23.976 fps, High Profile 4.1 ~24861 kbps
Аудио 1: Russian 48 kHz, 5.1 AC3 Dolby Digital Audio, 640.00 kbps | Dub
Аудио 2: Ukrainian 48 kHz, 5.1 AC3 Dolby Digital Audio, 640.00 kbps | Dub
Аудио 3: Russian 48 kHz, 5.1 AC3 Dolby Digital Audio, 448.00 kbps | AVO
Аудио 4: English 48 kHz, 5.1 DTS-HD Master Audio, 2258.00 kbps | 48 kHz, 5.1 DTS Core, 1509.00 kbps | Original

Инфо
Формат : Matroska
Версия формата : Version 4 / Version 2
Размер файла : 26,5 Гбайт
Продолжительность : 2 ч. 11 м.
Режим общего битрейта : Переменный
Общий поток : 28,9 Мбит/сек
Название фильма : Штурм Белого дома / White House Down 2013
Дата кодирования : UTC 2014-10-28 20:11:48
Программа кодирования : mkvmerge v6.6.0 ('The Edge Of The In Between') built on Dec 1 2013 17:55:00
Библиотека кодирования : libebml v1.3.0 + libmatroska v1.4.1
Видео
Идентификатор : 1
Формат : AVC
Формат/Информация : Advanced Video Codec
Профиль формата : High@L4.1
Параметр CABAC формата : Да
Параметр ReFrames формата : 2 кадра
Идентификатор кодека : V_MPEG4/ISO/AVC
Продолжительность : 2 ч. 11 м.
Вид битрейта : Переменный
Ширина : 1920 пикселей
Высота : 1080 пикселей
Соотношение сторон : 16:9
Режим частоты кадров : Постоянный
Частота кадров : 23,976 кадра/сек
Цветовое пространство : YUV
Субдискретизация насыщенности : 4:2:0
Битовая глубина : 8 бит
Тип развёртки : Прогрессивная
Заголовок : Blu-ray Remux EUR
Язык : English
Default : Да
Forced : Нет
Аудио #1
Идентификатор : 2
Формат : AC-3
Формат/Информация : Audio Coding 3
Расширение режима : CM (complete main)
Параметр Endianness формата : Big
Идентификатор кодека : A_AC3
Продолжительность : 2 ч. 11 м.
Вид битрейта : Постоянный
Битрейт : 640 Кбит/сек
Каналы : 6 каналов
Расположение каналов : Front: L C R, Side: L R, LFE
Частота : 48,0 КГц
Битовая глубина : 16 бит
Метод сжатия : С потерями
Размер потока : 602 Мбайт (2%)
Заголовок : Dub
Язык : Russian
Default : Да
Forced : Нет
Аудио #2
Идентификатор : 3
Формат : AC-3
Формат/Информация : Audio Coding 3
Расширение режима : CM (complete main)
Параметр Endianness формата : Big
Идентификатор кодека : A_AC3
Продолжительность : 2 ч. 11 м.
Вид битрейта : Постоянный
Битрейт : 640 Кбит/сек
Каналы : 6 каналов
Расположение каналов : Front: L C R, Side: L R, LFE
Частота : 48,0 КГц
Битовая глубина : 16 бит
Метод сжатия : С потерями
Размер потока : 602 Мбайт (2%)
Заголовок : Dub
Язык : Ukrainian
Default : Нет
Forced : Нет
Аудио #3
Идентификатор : 4
Формат : AC-3
Формат/Информация : Audio Coding 3
Расширение режима : CM (complete main)
Параметр Endianness формата : Big
Идентификатор кодека : A_AC3
Продолжительность : 2 ч. 11 м.
Вид битрейта : Постоянный
Битрейт : 448 Кбит/сек
Каналы : 6 каналов
Расположение каналов : Front: L C R, Side: L R, LFE
Частота : 48,0 КГц
Битовая глубина : 16 бит
Метод сжатия : С потерями
Размер потока : 422 Мбайт (2%)
Заголовок : AVO Володарский
Язык : Russian
Default : Нет
Forced : Нет
Аудио #4
Идентификатор : 5
Формат : DTS
Формат/Информация : Digital Theater Systems
Профиль формата : MA / Core
Режим : 16
Параметр Endianness формата : Big
Идентификатор кодека : A_DTS
Продолжительность : 2 ч. 11 м.
Вид битрейта : Переменный
Битрейт : Неизвестно / 1509 Кбит/сек
Каналы : 6 каналов
Расположение каналов : Front: L C R, Side: L R, LFE
Частота : 48,0 КГц
Битовая глубина : 16 бит
Метод сжатия : Без потерь / Lossy
Заголовок : Original
Язык : English
Default : Нет
Forced : Нет
Текст #1
Идентификатор : 6
Формат : UTF-8
Идентификатор кодека : S_TEXT/UTF8
Идентификатор кодека/Информация : UTF-8 Plain Text
Заголовок : Full
Язык : Russian
Default : Нет
Forced : Нет
Текст #2
Идентификатор : 7
Формат : UTF-8
Идентификатор кодека : S_TEXT/UTF8
Идентификатор кодека/Информация : UTF-8 Plain Text
Заголовок : Full
Язык : English
Default : Нет
Forced : Нет
Текст #3
Идентификатор : 8
Формат : UTF-8
Идентификатор кодека : S_TEXT/UTF8
Идентификатор кодека/Информация : UTF-8 Plain Text
Заголовок : Full i
Язык : English
Default : Нет
Forced : Нет
Меню
00:00:00.000 : en:00:00:00.000
00:06:39.774 : en:00:06:39.774
00:15:18.835 : en:00:15:18.835
00:21:37.838 : en:00:21:37.838
00:30:10.809 : en:00:30:10.809
00:37:47.348 : en:00:37:47.348
00:45:51.207 : en:00:45:51.207
00:51:12.278 : en:00:51:12.278
00:59:55.133 : en:00:59:55.133
01:07:08.942 : en:01:07:08.942
01:14:42.853 : en:01:14:42.853
01:24:13.590 : en:01:24:13.590
01:29:53.805 : en:01:29:53.805
01:37:27.717 : en:01:37:27.717
01:44:36.562 : en:01:44:36.562
01:54:17.851 : en:01:54:17.851
Скриншоты
Скачать

Скачать торрент!

Как скачивать? · Что такое торрент? · Рейтинг и ограничения

Сайт не распространяет и не хранит электронные версии произведений, а лишь предоставляет доступ к создаваемому пользователями каталогу ссылок на торрент-файлы, которые содержат только списки хеш-сумм

[Профиль] [ЛС]
Показать сообщения:    
Ответить на тему

Текущее время: Сегодня 06:00

Часовой пояс: GMT + 4



Вы не можете начинать темы
Вы не можете отвечать на сообщения
Вы не можете редактировать свои сообщения
Вы не можете удалять свои сообщения
Вы не можете голосовать в опросах
Вы не можете прикреплять файлы к сообщениям
Вы не можете скачивать файлы