Слишком женат / Муж двух жен / Run for your Wife (Рэй Куни / Ray Cooney, Джон Лутон / John Luton) [2012, Великобритания, комедия, HDTV 1080i] DVO (Amedia Premium HD) + Original Eng

Ответить на тему
 
Автор Сообщение

user ®

Стаж: 7 лет 7 месяцев

Сообщений: 20008

Пост Пост: #1 от 30-Окт-2014 18:50

[Цитировать]

Слишком женат / Муж двух жен / Run for your Wife
Страна: Великобритания
Студия: Run For Your Wife Film
Жанр: комедия
Год выпуска: 2012
Продолжительность: 01:29:45
Перевод: Профессиональный (двухголосый закадровый) Amedia Premium HD
Cубтитры: нет
Оригинальная аудиодорожка: английский
Режиссер: Рэй Куни / Ray Cooney, Джон Лутон / John Luton
В ролях: Дэнни Дайер, Дениз Ван Оутен, Сара Хардинг, Нил Мориссей, Келли Ширли, Кристофер Биггинс, Лайонел Блэр, Николя Ле Прево, Бен Картрайт, Дерек Гриффитс…
Описание: У таксиста Джона Смита (Дэнни Дайер) просто замечательная жизнь! Он счастлив и строит на будущее самые радужные планы. Как вдруг, одно происшествие переворачивает все его существование буквально вверх дном.
II Сэмпл II IMDB II
Тип релиза: HDTV 1080i
Контейнер: TS
Видео: AVC / 1920x1080 / 16:9 / 25.0fps / Bit rate 6695Kbps / High@L4.0
Аудио 1: AC3 / 48.0KHz / 6ch. / 384kbps / rus / dvo
Аудио 2: MP2 / 48.0KHz / 2ch. / 192kbps / eng
MediaInfo
Общее
Идентификатор : 1 (0x1)
Полное имя : E:\torrent\Run.for.your.Wife.2012.HDTV1080i.ts
Формат : MPEG-TS
Размер файла : 4,80 Гбайт
Продолжительность : 1 ч. 29 м.
Режим общего битрейта : Переменный
Общий поток : 7656 Кбит/сек
Максимальный общий битрейт : 35,5 Мбит/сек
Видео
Идентификатор : 4113 (0x1011)
Идентификатор меню : 1 (0x1)
Формат : AVC
Формат/Информация : Advanced Video Codec
Профиль формата : High@L4.0
Параметр CABAC формата : Да
Параметр ReFrames формата : 4 кадра
Идентификатор кодека : 27
Продолжительность : 1 ч. 29 м.
Вид битрейта : Переменный
Битрейт : 6695 Кбит/сек
Максимальный битрейт : 40,0 Мбит/сек
Ширина : 1920 пикселей
Высота : 1080 пикселей
Соотношение сторон : 16:9
Частота кадров : 25,000 кадров/сек
Стандарт вещания : Component
Цветовое пространство : YUV
Субдискретизация насыщенности : 4:2:0
Битовая глубина : 8 бит
Тип развёртки : MBAFF
Бит/(Пиксели*Кадры) : 0.129
Размер потока : 4,20 Гбайт (87%)
Основные цвета : BT.709
Характеристики трансфера : BT.709
Коэффициенты матрицы : BT.709
Аудио #1
Идентификатор : 4352 (0x1100)
Идентификатор меню : 1 (0x1)
Формат : AC-3
Формат/Информация : Audio Coding 3
Расширение режима : CM (complete main)
Параметр Endianness формата : Big
Идентификатор кодека : 129
Продолжительность : 1 ч. 29 м.
Вид битрейта : Постоянный
Битрейт : 384 Кбит/сек
Каналы : 6 каналов
Расположение каналов : Front: L C R, Side: L R, LFE
Частота : 48,0 КГц
Битовая глубина : 16 бит
Метод сжатия : С потерями
Размер потока : 247 Мбайт (5%)
Аудио #2
Идентификатор : 4353 (0x1101)
Идентификатор меню : 1 (0x1)
Формат : MPEG Audio
Версия формата : Version 1
Профиль формата : Layer 2
Режим : Joint stereo
Расширение режима : Intensity Stereo + MS Stereo
Идентификатор кодека : 4
Продолжительность : 1 ч. 29 м.
Вид битрейта : Постоянный
Битрейт : 192 Кбит/сек
Каналы : 2 канала
Частота : 48,0 КГц
Метод сжатия : С потерями
Размер потока : 123 Мбайт (3%)
Скриншот с названием фильма Скриншоты
Скачать

Скачать торрент!

Как скачивать? · Что такое торрент? · Рейтинг и ограничения

Сайт не распространяет и не хранит электронные версии произведений, а лишь предоставляет доступ к создаваемому пользователями каталогу ссылок на торрент-файлы, которые содержат только списки хеш-сумм

[Профиль] [ЛС]
Показать сообщения:    
Ответить на тему

Текущее время: Сегодня 16:15

Часовой пояс: GMT + 4



Вы не можете начинать темы
Вы не можете отвечать на сообщения
Вы не можете редактировать свои сообщения
Вы не можете удалять свои сообщения
Вы не можете голосовать в опросах
Вы не можете прикреплять файлы к сообщениям
Вы не можете скачивать файлы