Круг восьми / Circle of Eight (Стивен Крегг / Stephen Cragg) [2009, США, ужасы, детектив, WEB-DL 720p] 2х MVO + Sub Eng + Original Eng

Ответить на тему
 
Автор Сообщение

user ®

Стаж: 7 лет 7 месяцев

Сообщений: 20008

Пост Пост: #1 от 30-Окт-2014 18:50

[Цитировать]

Круг восьми / Circle of Eight
Страна: США
Студия: Paramount Pictures Digital Entertainment и др.
Жанр: ужасы, детектив
Год выпуска: 2009
Продолжительность: 01:23:49
Перевод: Профессиональный (многоголосый закадровый)
Перевод 2: Профессиональный (многоголосый закадровый) Paramound Channel
Cубтитры: английские
Оригинальная аудиодорожка: английский
Режиссер: Стивен Крегг / Stephen Cragg
В ролях: Джон Бишоп, Кирк Бовилл, Райан Дум, Остин Хигсмит, Спенсер Хилл, Джесси Джонсон, Даррен Рейхер, Джош Келли, Катя Килинг, Кэти Лоус, DJ Куаллс
Описание: Джессика поселяется на верхнем этаже восьмиэтажного здания «Данте» в Лос-Анджелесе. Другие жильцы сначала кажутся дружелюбными, но затем, когда она становится свидетелем ужасных смертей, она объединяется с соседом Эваном, чтобы разгадать тайну и выяснить как она связана с этим местом.

Sample
Тип релиза: WEB-DL 720p
Контейнер: MKV
Видео: MPEG4 AVC Video, H264, 16:9, 1280x718, 23.976 fps, 4055 kbps
Аудио: Russian (AC3, 6 ch, 384 kbps, 16 bits, 48.0 KHz) - MVO
Аудио 2: Russian (AC3, 2 ch, 192 kbps, 16 bits, 48.0 KHz) - Paramound Channel
Аудио 3: English (AC3, 6 ch, 384 kbps, 16 bits, 48.0 KHz) - оригинал
Формат субтитров: softsub (SRT)

MediaInfo
General
Unique ID : 213639734636836181940576451122928126760 (0xA0B984274F046FB9B9DA3B0AAAD18B28)
Complete name : K:\Circle of Eight 2009 WEB-DL 720p.mkv
Format : Matroska
Format version : Version 4 / Version 2
File size : 3.00 GiB
Duration : 1h 23mn
Overall bit rate : 5 117 Kbps
Encoded date : UTC 2014-10-28 14:47:18
Writing application : mkvmerge v6.1.0 ('Old Devil') built on Mar 2 2013 14:32:37
Writing library : libebml v1.3.0 + libmatroska v1.4.0
Video
ID : 1
Format : AVC
Format/Info : Advanced Video Codec
Format profile : High@L3.1
Format settings, CABAC : No
Format settings, ReFrames : 2 frames
Codec ID : V_MPEG4/ISO/AVC
Duration : 1h 23mn
Bit rate : 4 055 Kbps
Width : 1 280 pixels
Height : 718 pixels
Display aspect ratio : 16:9
Frame rate mode : Constant
Frame rate : 23.976 fps
Color space : YUV
Chroma subsampling : 4:2:0
Bit depth : 8 bits
Scan type : Progressive
Bits/(Pixel*Frame) : 0.184
Stream size : 2.37 GiB (79%)
Language : English
Default : Yes
Forced : No
Color primaries : BT.709
Transfer characteristics : BT.709
Matrix coefficients : BT.709
Audio #1
ID : 2
Format : AC-3
Format/Info : Audio Coding 3
Mode extension : CM (complete main)
Format settings, Endianness : Big
Codec ID : A_AC3
Duration : 1h 23mn
Bit rate mode : Constant
Bit rate : 384 Kbps
Channel count : 6 channels
Channel positions : Front: L C R, Side: L R, LFE
Sampling rate : 48.0 KHz
Bit depth : 16 bits
Compression mode : Lossy
Stream size : 230 MiB (8%)
Language : Russian
Default : Yes
Forced : No
Audio #2
ID : 3
Format : AC-3
Format/Info : Audio Coding 3
Mode extension : CM (complete main)
Format settings, Endianness : Big
Codec ID : A_AC3
Duration : 1h 23mn
Bit rate mode : Constant
Bit rate : 192 Kbps
Channel count : 2 channels
Channel positions : Front: L R
Sampling rate : 48.0 KHz
Bit depth : 16 bits
Compression mode : Lossy
Stream size : 115 MiB (4%)
Title : Paramound Channel
Language : Russian
Default : No
Forced : No
Audio #3
ID : 4
Format : AC-3
Format/Info : Audio Coding 3
Mode extension : CM (complete main)
Format settings, Endianness : Big
Codec ID : A_AC3
Duration : 1h 23mn
Bit rate mode : Constant
Bit rate : 384 Kbps
Channel count : 6 channels
Channel positions : Front: L C R, Side: L R, LFE
Sampling rate : 48.0 KHz
Bit depth : 16 bits
Compression mode : Lossy
Stream size : 230 MiB (8%)
Language : English
Default : No
Forced : No
Text
ID : 5
Format : UTF-8
Codec ID : S_TEXT/UTF8
Codec ID/Info : UTF-8 Plain Text
Language : English
Default : No
Forced : No
Menu
00:00:00.000 : en:Chapter 1
00:03:47.000 : en:Chapter 2
00:06:47.000 : en:Chapter 3
00:10:41.000 : en:Chapter 4
00:13:16.000 : en:Chapter 5
00:15:29.000 : en:Chapter 6
00:19:05.000 : en:Chapter 7
00:24:05.000 : en:Chapter 8
00:27:43.000 : en:Chapter 9
00:36:14.000 : en:Chapter 10
00:40:49.000 : en:Chapter 11
00:46:54.000 : en:Chapter 12
00:51:58.000 : en:Chapter 13
00:54:28.000 : en:Chapter 14
00:59:09.000 : en:Chapter 15
01:03:37.000 : en:Chapter 16
01:07:11.000 : en:Chapter 17
01:11:12.000 : en:Chapter 18
01:18:06.000 : en:Chapter 19
Скриншоты
Скачать

Скачать торрент!

Как скачивать? · Что такое торрент? · Рейтинг и ограничения

Сайт не распространяет и не хранит электронные версии произведений, а лишь предоставляет доступ к создаваемому пользователями каталогу ссылок на торрент-файлы, которые содержат только списки хеш-сумм

[Профиль] [ЛС]
Показать сообщения:    
Ответить на тему

Текущее время: Сегодня 20:38

Часовой пояс: GMT + 4



Вы не можете начинать темы
Вы не можете отвечать на сообщения
Вы не можете редактировать свои сообщения
Вы не можете удалять свои сообщения
Вы не можете голосовать в опросах
Вы не можете прикреплять файлы к сообщениям
Вы не можете скачивать файлы