Навстречу шторму / Into the Storm (Стивен Куэйл / Steven Quale) [2014, США, приключения, BDRip 1080p] Dub (iTunes) + Sub Rus, Eng + Original Eng

Ответить на тему
 
Автор Сообщение

user ®

Стаж: 7 лет 7 месяцев

Сообщений: 20008

Пост Пост: #1 от 30-Окт-2014 18:50

[Цитировать]

Навстречу шторму / Into the Storm
Страна: США
Студия: New Line Cinema, Village Roadshow
Жанр: приключения
Год выпуска: 2014
Продолжительность: 01:29:14
Перевод: Профессиональный (дублированный) iTunes
Cубтитры: Rus, Eng
Оригинальная аудиодорожка: английский
Режиссер: Стивен Куэйл / Steven Quale
В ролях: Ричард Армитедж (Gary), Сара Уэйн Кэллис (Allison), Мэтт Уолш (Pete), Макс Дикон (Donnie), Нэйтан Кресс (Trey), Алисия Дебнем Кери (Kaitlyn), Арлен Эскарпета (Daryl), Джереми Самптер (Jacob), Ли Уитэйкер (Lucas), Кайл Дэвис (Donk), Джон Рип (Reevis)
Описание: Всего лишь за один день невероятное «нашествие» смерчей практически уничтожило городок Сильверстон. Все его жители были отданы на растерзание непредсказуемым и смертельно опасным торнадо, и при этом метеорологи говорят, что худшее еще впереди. Большинство ищут убежища, в то время как немногие смельчаки идут навстречу стихии, испытывая себя: насколько далеко сможет зайти «охотник за торнадо» ради одного единственного — зато какого! — снимка.

Тип релиза: BDRip 1080p
Контейнер: MKV
Видео: MPEG-4 AVC, 13.5 Мбит/с, 1920x1080, 23,976 fps
Аудио: Rus, AC3, 384 kb/s (6 ch), 48 kHz
Аудио 2: Eng, DTS, 1510 kb/s (6 ch), 48 kHz
Формат субтитров: softsub (SRT)
MediaInfo
Format : Matroska
Format version : Version 4 / Version 2
File size : 9.60 GiB
Duration : 1h 29mn
Overall bit rate : 15.4 Mbps
Encoded date : UTC 2014-10-29 11:36:26
Writing application : mkvmerge v7.1.0 ('Good Love') 64bit built on Jul 27 2014 13:06:55
Writing library : libebml v1.3.0 + libmatroska v1.4.1
_STATISTICS_WRITING_APP : mkvmerge v7.1.0 ('Good Love') 64bit built on Jul 27 2014 13:06:55
_STATISTICS_WRITING_DATE_UTC : 2014-10-29 11:36:26
_STATISTICS_TAGS : BPS DURATION NUMBER_OF_FRAMES NUMBER_OF_BYTES
DURATION : 01:29:14.496000000
NUMBER_OF_FRAMES : 167328
NUMBER_OF_BYTES : 257015808
Video
ID : 1
Format : AVC
Format/Info : Advanced Video Codec
Format profile : High@L4.1
Format settings, CABAC : Yes
Format settings, ReFrames : 4 frames
Codec ID : V_MPEG4/ISO/AVC
Duration : 1h 29mn
Bit rate : 13.5 Mbps
Width : 1 920 pixels
Height : 1 080 pixels
Display aspect ratio : 16:9
Frame rate mode : Constant
Frame rate : 23.976 fps
Color space : YUV
Chroma subsampling : 4:2:0
Bit depth : 8 bits
Scan type : Progressive
Bits/(Pixel*Frame) : 0.272
Stream size : 8.23 GiB (86%)
Writing library : x264 core 142 r2479kMod dd79a61
Encoding settings : cabac=1 / ref=4 / deblock=1:-3:-3 / analyse=0x3:0x133 / me=umh / subme=10 / psy=1 / fade_compensate=0.00 / psy_rd=1.05:0.00 / mixed_ref=1 / me_range=32 / chroma_me=1 / trellis=2 / 8x8dct=1 / cqm=0 / deadzone=21,11 / fast_pskip=0 / chroma_qp_offset=-2 / threads=18 / lookahead_threads=3 / sliced_threads=0 / nr=0 / decimate=1 / interlaced=0 / bluray_compat=0 / constrained_intra=0 / fgo=0 / bframes=9 / b_pyramid=2 / b_adapt=2 / b_bias=0 / direct=3 / weightb=1 / open_gop=0 / weightp=2 / keyint=230 / keyint_min=23 / scenecut=40 / intra_refresh=0 / rc_lookahead=40 / rc=2pass / mbtree=0 / bitrate=13500 / ratetol=1.0 / qcomp=0.65 / qpmin=0 / qpmax=69 / qpstep=4 / cplxblur=20.0 / qblur=0.5 / vbv_maxrate=50000 / vbv_bufsize=62500 / nal_hrd=none / filler=0 / ip_ratio=1.20 / pb_ratio=1.10 / aq=1:0.60
Language : English
Default : Yes
Forced : No
Matrix coefficients : BT.709
_STATISTICS_WRITING_APP : mkvmerge v7.1.0 ('Good Love') 64bit built on Jul 27 2014 13:06:55
_STATISTICS_WRITING_DATE_UTC : 2014-10-29 11:36:26
_STATISTICS_TAGS : BPS DURATION NUMBER_OF_FRAMES NUMBER_OF_BYTES
DURATION : 01:29:17.394000000
NUMBER_OF_FRAMES : 128449
NUMBER_OF_BYTES : 9039210805
Audio #1
ID : 2
Format : AC-3
Format/Info : Audio Coding 3
Mode extension : CM (complete main)
Format settings, Endianness : Big
Codec ID : A_AC3
Duration : 1h 29mn
Bit rate mode : Constant
Bit rate : 384 Kbps
Channel(s) : 6 channels
Channel positions : Front: L C R, Side: L R, LFE
Sampling rate : 48.0 KHz
Bit depth : 16 bits
Compression mode : Lossy
Stream size : 245 MiB (2%)
Title : iTunes
Language : Russian
Default : Yes
Forced : No
Audio #2
ID : 3
Format : DTS
Format/Info : Digital Theater Systems
Mode : 16
Format settings, Endianness : Big
Codec ID : A_DTS
Duration : 1h 29mn
Bit rate mode : Constant
Bit rate : 1 509 Kbps
Channel(s) : 6 channels
Channel positions : Front: L C R, Side: L R, LFE
Sampling rate : 48.0 KHz
Bit depth : 24 bits
Compression mode : Lossy
Stream size : 964 MiB (10%)
Language : English
Default : No
Forced : No
Text #1
ID : 4
Format : UTF-8
Codec ID : S_TEXT/UTF8
Codec ID/Info : UTF-8 Plain Text
Language : Russian
Default : No
Forced : No
Text #2
ID : 5
Format : UTF-8
Codec ID : S_TEXT/UTF8
Codec ID/Info : UTF-8 Plain Text
Language : English
Default : No
Forced : No
Menu
00:00:00.000 : en:00:00:00.000
00:09:37.202 : en:00:09:37.202
00:19:58.030 : en:00:19:58.030
00:29:52.249 : en:00:29:52.249
00:38:48.409 : en:00:38:48.409
00:47:59.085 : en:00:47:59.085
01:00:39.010 : en:01:00:39.010
01:08:59.510 : en:01:08:59.510
01:19:59.753 : en:01:19:59.753
01:23:58.700 : en:01:23:58.700
Скриншоты
Скачать

Скачать торрент!

Как скачивать? · Что такое торрент? · Рейтинг и ограничения

Сайт не распространяет и не хранит электронные версии произведений, а лишь предоставляет доступ к создаваемому пользователями каталогу ссылок на торрент-файлы, которые содержат только списки хеш-сумм

[Профиль] [ЛС]
Показать сообщения:    
Ответить на тему

Текущее время: Сегодня 00:09

Часовой пояс: GMT + 4



Вы не можете начинать темы
Вы не можете отвечать на сообщения
Вы не можете редактировать свои сообщения
Вы не можете удалять свои сообщения
Вы не можете голосовать в опросах
Вы не можете прикреплять файлы к сообщениям
Вы не можете скачивать файлы