Пало-Альто / Palo Alto (Джиа Коппола / Gia Coppola) [2013, США, драма, BDRip 720p] Subs (Rus, Eng, Spa, Fre) + Original (Eng)

Ответить на тему
 
Автор Сообщение

user ®

Стаж: 7 лет 7 месяцев

Сообщений: 20008

Пост Пост: #1 от 30-Окт-2014 18:50

[Цитировать]

Пало-Альто / Palo Alto Страна: США
Жанр: драма
Год выпуска: 2013
Продолжительность: 01:39:59
Перевод: Субтитры
Cубтитры: английские (полные, SDH), русские ([url=http://***/forum/profile.php?mode=viewprofile&u=11958940]Dr.pro[/url] и группа Chillerama), французские, испанские
Оригинальная аудиодорожка: английский
Режиссер: Джиа Коппола / Gia Coppola
В ролях: Джек Килмер, Нат Вулф, Эмма Робертс, Оливия Крокикчия, Клаудия Леви, Джеймс Франко, Вэл Килмер, Жак Гетти, Эндрю Лютеран, Бо Митчелл
Описание:
История о группе подростков, которые постоянно находят себе неприятности…
- || -Тип релиза: BDRip 720p (рип от BodoiCuHo@VietHD)

Контейнер: MKV
Видео: AVC (x264), 1280x690 (1,85:1) at 23,976 fps, 6234 Кbps, 0.294 bpp
Аудио 1: AC3; 640 Kbps; CBR; 6 ch; 48 khz | Английский |
Формат субтитров: softsub (SRT)
Скриншоты || x264 Info || MediaInfo || Notes
MediaInfo
Общее
Уникальный идентификатор                 : 174992604070946388268214052016472618742 (0x83A65980DEC6E0B88B9FAA38CE7E76F6)
Полное имя                               : Пало-Альто.2013.RUSSUB.720p.BluRay.x264-VietHD.mkv
Формат                                   : Matroska
Версия формата                           : Version 4 / Version 2
Размер файла                             : 4,90 Гбайт
Продолжительность                        : 1 ч. 39 м.
Общий поток                              : 7014 Кбит/сек
Название фильма                          : Palo Alto [2013] [720p] RUSSUB
Дата кодирования                         : UTC 2014-10-29 14:21:13
Программа кодирования                    : mkvmerge v7.3.0 ('Nouages') 32bit built on Oct 22 2014 18:44:01
Библиотека кодирования                   : libebml v1.3.0 + libmatroska v1.4.1
Видео
Идентификатор                            : 1
Формат                                   : AVC
Формат/Информация                        : Advanced Video Codec
Профиль формата                          : High@L4.1
Параметр CABAC формата                   : Да
Параметр ReFrames формата                : 9 кадров
Идентификатор кодека                     : V_MPEG4/ISO/AVC
Продолжительность                        : 1 ч. 39 м.
Битрейт                                  : 6234 Кбит/сек
Ширина                                   : 1280 пикселей
Высота                                   : 690 пикселей
Соотношение сторон                       : 1,85:1
Соотношение сторон в оригинале           : 1,85:1
Режим частоты кадров                     : Постоянный
Частота кадров                           : 23,976 кадра/сек
Цветовое пространство                    : YUV
Субдискретизация насыщенности            : 4:2:0
Битовая глубина                          : 8 бит
Тип развёртки                            : Прогрессивная
Бит/(Пиксели*Кадры)                      : 0.294
Размер потока                            : 4,35 Гбайт (89%)
Заголовок                                : profile.php?mode=viewprofile&u=22488948
Библиотека кодирования                   : x264 core 142 r2431+42 c69a006 tMod [8-bit@4:2:0 X86_64]
Настройки программы                      : cabac=1 / ref=9 / deblock=1:-3:-3 / analyse=0x3:0x133 / me=umh / subme=10 / psy=1 / fade_compensate=0.00 / psy_rd=1.00:0.00 / mixed_ref=1 / me_range=24 / chroma_me=1 / trellis=2 / 8x8dct=1 / cqm=0 / deadzone=21,11 / fast_pskip=1 / chroma_qp_offset=-2 / threads=12 / lookahead_threads=2 / sliced_threads=0 / nr=0 / decimate=1 / interlaced=0 / bluray_compat=0 / constrained_intra=0 / fgo=0 / bframes=9 / b_pyramid=2 / b_adapt=2 / b_bias=0 / direct=3 / weightb=1 / open_gop=0 / weightp=2 / keyint=250 / keyint_min=23 / scenecut=40 / intra_refresh=0 / rc=crf / mbtree=0 / crf=16.4000 / qcomp=0.65 / qpmin=0:0:0 / qpmax=69:69:69 / qpstep=4 / ip_ratio=1.30 / pb_ratio=1.20 / aq=4:0.85 / aq-sensitivity=10.00 / aq-factor=1.00:1.00:1.00 / aq2=0 / aq3=0
Язык                                     : English
Default                                  : Да
Forced                                   : Нет
Коэффициенты матрицы                     : BT.709
Аудио
Идентификатор                            : 2
Формат                                   : AC-3
Формат/Информация                        : Audio Coding 3
Расширение режима                        : CM (complete main)
Параметр Endianness формата              : Big
Идентификатор кодека                     : A_AC3
Продолжительность                        : 1 ч. 39 м.
Вид битрейта                             : Постоянный
Битрейт                                  : 640 Кбит/сек
Каналы                                   : 6 каналов
Расположение каналов                     : Front: L C R, Side: L R, LFE
Частота                                  : 48,0 КГц
Битовая глубина                          : 16 бит
Метод сжатия                             : С потерями
Размер потока                            : 458 Мбайт (9%)
Язык                                     : English
Default                                  : Да
Forced                                   : Нет
Текст #1
Идентификатор                            : 3
Формат                                   : UTF-8
Идентификатор кодека                     : S_TEXT/UTF8
Идентификатор кодека/Информация          : UTF-8 Plain Text
Заголовок                                : [Dr.pro и группа Chillerama]
Язык                                     : Russian
Default                                  : Да
Forced                                   : Нет
Текст #2
Идентификатор                            : 4
Формат                                   : UTF-8
Идентификатор кодека                     : S_TEXT/UTF8
Идентификатор кодека/Информация          : UTF-8 Plain Text
Язык                                     : English
Default                                  : Нет
Forced                                   : Нет
Текст #3
Идентификатор                            : 5
Формат                                   : UTF-8
Идентификатор кодека                     : S_TEXT/UTF8
Идентификатор кодека/Информация          : UTF-8 Plain Text
Заголовок                                : SDH
Язык                                     : English
Default                                  : Нет
Forced                                   : Нет
Текст #4
Идентификатор                            : 6
Формат                                   : UTF-8
Идентификатор кодека                     : S_TEXT/UTF8
Идентификатор кодека/Информация          : UTF-8 Plain Text
Язык                                     : French
Default                                  : Нет
Forced                                   : Нет
Текст #5
Идентификатор                            : 7
Формат                                   : UTF-8
Идентификатор кодека                     : S_TEXT/UTF8
Идентификатор кодека/Информация          : UTF-8 Plain Text
Язык                                     : Spanish
Default                                  : Нет
Forced                                   : Нет
Меню
00:00:00.000                             : en:00:00:00.000
00:05:47.305                             : en:00:05:47.305
00:08:25.130                             : en:00:08:25.130
00:19:04.477                             : en:00:19:04.477
00:22:10.454                             : en:00:22:10.454
00:27:39.491                             : en:00:27:39.491
00:30:11.727                             : en:00:30:11.727
00:35:39.054                             : en:00:35:39.054
00:43:53.548                             : en:00:43:53.548
00:54:12.916                             : en:00:54:12.916
01:04:04.674                             : en:01:04:04.674
01:11:45.218                             : en:01:11:45.218
01:15:53.090                             : en:01:15:53.090
01:21:45.692                             : en:01:21:45.692
01:29:50.552                             : en:01:29:50.552
01:33:57.757                             : en:01:33:57.757
Encode vs WEB-DL
Encode...........[url=http://***/forum/viewtopic.php?t=4797953]WEB-DL 720p[/url]

Скачать

Скачать торрент!

Как скачивать? · Что такое торрент? · Рейтинг и ограничения

Сайт не распространяет и не хранит электронные версии произведений, а лишь предоставляет доступ к создаваемому пользователями каталогу ссылок на торрент-файлы, которые содержат только списки хеш-сумм

[Профиль] [ЛС]
Показать сообщения:    
Ответить на тему

Текущее время: Сегодня 15:52

Часовой пояс: GMT + 4



Вы не можете начинать темы
Вы не можете отвечать на сообщения
Вы не можете редактировать свои сообщения
Вы не можете удалять свои сообщения
Вы не можете голосовать в опросах
Вы не можете прикреплять файлы к сообщениям
Вы не можете скачивать файлы