Небеса реальны / Heaven Is for Real (Рэндалл Уоллес / Randall Wallace) [2014, США, Драма, BDRip-AVC] MVO + Original Eng + Sub Rus, Eng

Ответить на тему
 
Автор Сообщение

user ®

Стаж: 7 лет 7 месяцев

Сообщений: 20008

Пост Пост: #1 от 30-Окт-2014 18:50

[Цитировать]

Небеса реальны / Heaven Is for Real Страна: США
Жанр: Драма
Год выпуска: 2014
Продолжительность: 01:39:30
Перевод: Профессиональный (многоголосый закадровый) - BD EUR
Cубтитры: русские, английские
Оригинальная аудиодорожка: английский
Режиссер: Рэндалл Уоллес / Randall Wallace
В ролях: Грег Киннер, Келли Райлли, Томас Хейден Чёрч, Коннор Корам, Лэйн Стайлз, Марго Мартиндейл, Джейкоб Варгас, Таня Ромеро, Дансо Гордон, Роб Моран
Описание: Главный герой меняет свое мировоззрение после того, как его 4-летний сын выходит из комы и утверждает, что был в раю. В доказательство он приводит факты из жизни их семьи, которые просто не мог знать.
Качество видео: BDRip-AVC |Heaven Is for Real (2014) Blu-ray EUR 1080p AVC DD5.1-HDCity&HDCLUB
Формат видео: MKV
Видео: AVC (x264), 1152x480 (2.40:1), ~3285 kbps, 23.976 fps, 0.248 bpp
Аудио 1: AС3, 48 KHz, 6 ch, 448 kbps - Русский
Аудио 2: AС3, 48 KHz, 6 ch, 448 kbps - Английский
Формат субтитров: softsub (SRT)

Релиз от: nnlabetik

x264|MediaInfo
x264 [info]

crop(0, 138, -0, -139)
raw [info]: 1152x480p 1:1 @ 24000/1001 fps (cfr)
x264 [info]: using SAR=1/1
x264 [info]: frame I:1039 Avg QP:15.35 size: 98763
x264 [info]: frame P:44034 Avg QP:17.67 size: 31293
x264 [info]: frame B:98064 Avg QP:18.87 size: 9904
x264 [info]: consecutive B-frames: 2.7% 16.9% 30.7% 21.4% 8.0% 14.1% 2.3% 1.6% 0.7% 1.0% 0.2% 0.1% 0.0% 0.0% 0.0%
x264 [info]: mb I I16..4: 2.7% 78.9% 18.5%
x264 [info]: mb P I16..4: 0.3% 7.8% 0.7% P16..4: 30.0% 38.3% 19.2% 0.0% 0.0% skip: 3.7%
x264 [info]: mb B I16..4: 0.0% 0.4% 0.0% B16..8: 32.5% 23.1% 6.0% direct: 6.2% skip:31.8% L0:42.6% L1:44.3% BI:13.1%
x264 [info]: 8x8 transform intra:86.1% inter:51.5%
x264 [info]: direct mvs spatial:92.3% temporal:7.7%
x264 [info]: coded y,uvDC,uvAC intra: 93.0% 86.8% 76.7% inter: 31.9% 25.9% 8.3%
x264 [info]: i16 v,h,dc,p: 28% 18% 4% 50%
x264 [info]: i8 v,h,dc,ddl,ddr,vr,hd,vl,hu: 9% 8% 14% 10% 12% 12% 12% 11% 13%
x264 [info]: i4 v,h,dc,ddl,ddr,vr,hd,vl,hu: 11% 10% 7% 9% 14% 14% 13% 11% 13%
x264 [info]: i8c dc,h,v,p: 46% 23% 15% 16%
x264 [info]: ref P L0: 62.3% 13.1% 8.5% 4.4% 3.3% 2.6% 2.2% 1.3% 1.2% 1.1%
x264 [info]: ref B L0: 71.1% 10.7% 6.7% 3.4% 2.6% 2.0% 1.6% 1.0% 0.9%
x264 [info]: kb/s:3285.42
encoded 143137 frames, 3.82 fps, 3285.42 kb/s
Общее
Уникальный идентификатор : 243482856687056181165063028019004734710 (0xB72D17ABB6102EB993E36E0F56407CF6)
Полное имя : ...Nebesa.real'ny.2014.BDRip(AVC).mkv
Формат : Matroska
Версия формата : Version 4 / Version 2
Размер файла : 2,91 Гбайт
Продолжительность : 1 ч. 39 м.
Общий поток : 4184 Кбит/сек
Название фильма : Небеса реальны / Heaven Is for Real (2014) -=NN@LIFE=-
Дата кодирования : UTC 2014-10-30 06:24:41
Программа кодирования : mkvmerge v7.3.0 ('Nouages') 32bit built on Oct 22 2014 18:44:01
Библиотека кодирования : libebml v1.3.0 + libmatroska v1.4.1
DURATION : 01:29:46.465000000
NUMBER_OF_FRAMES : 1119
NUMBER_OF_BYTES : 41128
_STATISTICS_WRITING_APP : mkvmerge v7.3.0 ('Nouages') 32bit built on Oct 22 2014 18:44:01
_STATISTICS_WRITING_DATE_UTC : 2014-10-30 06:24:41
_STATISTICS_TAGS : BPS DURATION NUMBER_OF_FRAMES NUMBER_OF_BYTES
Видео
Идентификатор : 1
Формат : AVC
Формат/Информация : Advanced Video Codec
Профиль формата : High@L4.1
Параметр CABAC формата : Да
Параметр ReFrames формата : 10 кадров
Идентификатор кодека : V_MPEG4/ISO/AVC
Продолжительность : 1 ч. 39 м.
Битрейт : 3286 Кбит/сек
Ширина : 1152 пикселя
Высота : 480 пикселей
Соотношение сторон : 2,40:1
Режим частоты кадров : Постоянный
Частота кадров : 23,976 кадра/сек
Цветовое пространство : YUV
Субдискретизация насыщенности : 4:2:0
Битовая глубина : 8 бит
Тип развёртки : Прогрессивная
Бит/(Пиксели*Кадры) : 0.248
Размер потока : 2,23 Гбайт (77%)
Заголовок : Rip by nnlabetik
Библиотека кодирования : x264 core 142 r2479 dd79a61
Настройки программы : cabac=1 / ref=10 / deblock=1:-2:-1 / analyse=0x3:0x113 / me=umh / subme=11 / psy=1 / psy_rd=1.00:0.00 / mixed_ref=1 / me_range=32 / chroma_me=1 / trellis=2 / 8x8dct=1 / cqm=0 / deadzone=21,11 / fast_pskip=0 / chroma_qp_offset=-2 / threads=4 / lookahead_threads=1 / sliced_threads=0 / nr=0 / decimate=1 / interlaced=0 / bluray_compat=0 / constrained_intra=0 / bframes=14 / b_pyramid=0 / b_adapt=2 / b_bias=0 / direct=3 / weightb=1 / open_gop=0 / weightp=0 / keyint=240 / keyint_min=23 / scenecut=40 / intra_refresh=0 / rc_lookahead=60 / rc=2pass / mbtree=0 / bitrate=3286 / ratetol=1.2 / qcomp=0.70 / qpmin=0 / qpmax=69 / qpstep=4 / cplxblur=10.0 / qblur=0.5 / vbv_maxrate=50000 / vbv_bufsize=62500 / nal_hrd=none / filler=0 / ip_ratio=1.35 / pb_ratio=1.25 / aq=1:1.00
Язык : English
Default : Да
Forced : Нет
Основные цвета : BT.709
Характеристики трансфера : BT.709
Коэффициенты матрицы : BT.709
Аудио #1
Идентификатор : 2
Формат : AC-3
Формат/Информация : Audio Coding 3
Расширение режима : CM (complete main)
Параметр Endianness формата : Big
Идентификатор кодека : A_AC3
Продолжительность : 1 ч. 39 м.
Вид битрейта : Постоянный
Битрейт : 448 Кбит/сек
Каналы : 6 каналов
Расположение каналов : Front: L C R, Side: L R, LFE
Частота : 48,0 КГц
Битовая глубина : 16 бит
Метод сжатия : С потерями
Размер потока : 319 Мбайт (11%)
Заголовок : AC3 5.1 @ 448 kbps - MVO
Язык : Russian
Default : Да
Forced : Нет
Аудио #2
Идентификатор : 3
Формат : AC-3
Формат/Информация : Audio Coding 3
Расширение режима : CM (complete main)
Параметр Endianness формата : Big
Идентификатор кодека : A_AC3
Продолжительность : 1 ч. 39 м.
Вид битрейта : Постоянный
Битрейт : 448 Кбит/сек
Каналы : 6 каналов
Расположение каналов : Front: L C R, Side: L R, LFE
Частота : 48,0 КГц
Битовая глубина : 16 бит
Метод сжатия : С потерями
Размер потока : 319 Мбайт (11%)
Заголовок : AC3 5.1 @ 448 kbps - Original
Язык : English
Default : Нет
Forced : Нет
Текст #1
Идентификатор : 4
Формат : UTF-8
Идентификатор кодека : S_TEXT/UTF8
Идентификатор кодека/Информация : UTF-8 Plain Text
Язык : Russian
Default : Нет
Forced : Нет
Текст #2
Идентификатор : 5
Формат : UTF-8
Идентификатор кодека : S_TEXT/UTF8
Идентификатор кодека/Информация : UTF-8 Plain Text
Язык : English
Default : Нет
Forced : Нет
Меню
00:00:00.000 : en:Chapter 01
00:04:57.255 : en:Chapter 02
00:11:09.669 : en:Chapter 03
00:17:20.081 : en:Chapter 04
00:22:07.618 : en:Chapter 05
00:26:00.100 : en:Chapter 06
00:33:09.487 : en:Chapter 07
00:40:09.449 : en:Chapter 08
00:44:37.842 : en:Chapter 09
00:49:48.736 : en:Chapter 10
00:56:35.309 : en:Chapter 11
01:03:18.086 : en:Chapter 12
01:06:33.448 : en:Chapter 13
01:13:07.967 : en:Chapter 14
01:16:29.585 : en:Chapter 15
01:23:51.485 : en:Chapter 16
Скриншоты
Скачать

Скачать торрент!

Как скачивать? · Что такое торрент? · Рейтинг и ограничения

Сайт не распространяет и не хранит электронные версии произведений, а лишь предоставляет доступ к создаваемому пользователями каталогу ссылок на торрент-файлы, которые содержат только списки хеш-сумм

[Профиль] [ЛС]
Показать сообщения:    
Ответить на тему

Текущее время: Сегодня 11:43

Часовой пояс: GMT + 4



Вы не можете начинать темы
Вы не можете отвечать на сообщения
Вы не можете редактировать свои сообщения
Вы не можете удалять свои сообщения
Вы не можете голосовать в опросах
Вы не можете прикреплять файлы к сообщениям
Вы не можете скачивать файлы