Мотель / The Bag Man (Дэвид Гровик / David Grovic) [2014, США, Багамы, триллер, криминал, HDRip] DVO (den904 & DeadSno)

Ответить на тему
 
Автор Сообщение

user ®

Стаж: 7 лет 7 месяцев

Сообщений: 20008

Пост Пост: #1 от 30-Окт-2014 10:30

[Цитировать]

Мотель
The Bag Man
--Страна: США, Багамы
Жанр: триллер, криминал
Год выпуска: 2014
Продолжительность: 01:48:39--Перевод: Любительский (двухголосый закадровый) den904 & DeadSno
Cубтитры: нет
Оригинальная аудиодорожка: нет--Режиссер: Дэвид Гровик / David Grovic--В ролях: Джон Кьюсак, Ребекка Да Коста, Роберт Де Ниро, Криспин Гловер, Доминик Пёрселл, Стикки Фингаз, Мартин Клебба, Дэвид Шамбрис, Чезз Менендес, Йен Маклафлин--Описание: Наемный убийца Джек Стаффорд получает несложное задание: приехать в заштатный мотель в 300 милях от Питтсбурга, получить сумку с таинственным содержимым и оставаться в номере, пока за грузом не приедут. Условие одно: ни при каких обстоятельствах не заглядывать внутрь сумки. Но поручение оказывается простым лишь на первый взгляд. Вскоре киллер понимает, что за доверенным ему предметом охотятся коррумпированные агенты ФБР, продажные полицейские, провинциальные гангстеры и кровожадный карлик-цыган из Сербии. И каждый хочет всадить в Джека пулю. Число жертв растет на глазах, и дожить до рассвета смогут далеко не все постояльцы мотеля.-- -- - Детям до 17 лет обязательно присутствие родителей--Сэмпл--Качество видео: HDRip
Формат видео: AVI
Видео: Xvid | mpeg4 | 720x304 | 2.35:1 | 23.976fps | 0.322 Bits/(Pixel*Frame) | 1690kbps
Аудио: Dolby AC3 | 48000Hz | stereo (L,R) | 224kbps--

MediaInfo
General
Complete name : E:\TORRENTS\Motelj.2014.P.HDRip.avi
Format : AVI
Format/Info : Audio Video Interleave
File size : 1.46 GiB
Duration : 1h 48mn
Overall bit rate : 1 923 Kbps
Writing application : VirtualDubMod 1.5.10.2 (build 2540/release)
Writing library : VirtualDubMod build 2540/release
Video
ID : 0
Format : MPEG-4 Visual
Format profile : Advanced Simple@L5
Format settings, BVOP : 2
Format settings, QPel : No
Format settings, GMC : No warppoints
Format settings, Matrix : Default (MPEG)
Codec ID : XVID
Codec ID/Hint : XviD
Duration : 1h 48mn
Bit rate : 1 690 Kbps
Width : 720 pixels
Height : 304 pixels
Display aspect ratio : 2.35:1
Frame rate : 23.976 fps
Color space : YUV
Chroma subsampling : 4:2:0
Bit depth : 8 bits
Scan type : Progressive
Compression mode : Lossy
Bits/(Pixel*Frame) : 0.322
Stream size : 1.28 GiB (88%)
Writing library : XviD 1.2.1 (UTC 2008-12-04)
Audio
ID : 1
Format : AC-3
Format/Info : Audio Coding 3
Mode extension : CM (complete main)
Format settings, Endianness : Big
Codec ID : 2000
Duration : 1h 48mn
Bit rate mode : Constant
Bit rate : 224 Kbps
Channel(s) : 2 channels
Channel positions : Front: L R
Sampling rate : 48.0 KHz
Bit depth : 16 bits
Compression mode : Lossy
Stream size : 174 MiB (12%)
Alignment : Split accross interleaves
Interleave, duration : 42 ms (1.00 video frame)
Interleave, preload duration : 500 ms
Скриншоты
-
-
Скачать

Скачать торрент!

Как скачивать? · Что такое торрент? · Рейтинг и ограничения

Сайт не распространяет и не хранит электронные версии произведений, а лишь предоставляет доступ к создаваемому пользователями каталогу ссылок на торрент-файлы, которые содержат только списки хеш-сумм

[Профиль] [ЛС]
Показать сообщения:    
Ответить на тему

Текущее время: Сегодня 10:00

Часовой пояс: GMT + 4



Вы не можете начинать темы
Вы не можете отвечать на сообщения
Вы не можете редактировать свои сообщения
Вы не можете удалять свои сообщения
Вы не можете голосовать в опросах
Вы не можете прикреплять файлы к сообщениям
Вы не можете скачивать файлы