Праздник монстров / A Monsterous Holiday (Гордон Крам / Gordon Crum) [2013, Мультфильм, детский, семейный, приключения, полном, SATRip] Dub

Ответить на тему
 
Автор Сообщение

user ®

Стаж: 11 лет

Сообщений: 15145

Пост Пост: #1 от 30-Окт-2014 04:10

[Цитировать]

Праздник монстров / A Monsterous Holiday
Страна: США, Kickstart Productions
Жанр: Мультфильм, детский, семейный, приключения, полнометражный
Продолжительность: 00:44:52
Год выпуска: 2013
Перевод: Профессиональный (дублированный)
Русские субтитры: нет
Режиссёр: Гордон Крам / Gordon Crum
Роли озвучивали: Шон Эстин, Дрейк Белл, Кайл Чандлер, Джон Хидер, Брук Шилдс
Роли дублировали: Антон Колесников, Прохор Чеховской, Сергей Бурунов, Денис Некрасов, Наталья Терешкова, Людмила Ильина
Описание: Мальчик Энди – настоящий горе-изобретатель, который мечтает занять первое место на научной ярмарке. Но его отец не разделяет страсти сына к экспериментам.
Семпл: http://sendfile.su/1041754
Качество: SATRip
Формат: AVI
Видео: Xvid, 720x400, 25fps, 1 950 Kbps
Аудио: AC3, 48000Hz, stereo, 192kbps
Субтитры: отсутствуют
Подробные технические данные
C:\Users\Dmitriy\Documents\Праздник монстров.2013.XviD.SATRip.avi General Complete name : C:\Users\Dmitriy\Documents\Праздник монстров.2013.XviD.SATRip.avi Format : AVI Format/Info : Audio Video Interleave File size : 690 MiB Duration : 44mn 52s Overall bit rate : 2 152 Kbps Movie name : A Monsterous Holiday Director : SATRip by Thunder Writing application : VirtualDubMod 1.5.10.3 | www.virtualdub-fr.org || (build 2550/release) Original source form/Name : Cartoon Video #0 ID : 0 Format : MPEG-4 Visual Format profile : Advanced Simple@L5 Format settings, BVOP : Yes Format settings, QPel : No Format settings, GMC : No warppoints Format settings, Matrix : Default (H.263) Codec ID : XVID Codec ID/Hint : XviD Duration : 44mn 52s Bit rate : 1 950 Kbps Width : 720 pixels Height : 400 pixels Display aspect ratio : 16:9 Frame rate : 25.000 fps Color space : YUV Chroma subsampling : 4:2:0 Bit depth : 8 bits Scan type : Progressive Bits/(Pixel*Frame) : 0.271 Stream size : 626 MiB (91%) Writing library : XviD 1.2.1 (UTC 2008-12-04) Audio #1 ID : 1 Format : AC-3 Format/Info : Audio Coding 3 Mode extension : CM (complete main) Codec ID : 2000 Duration : 44mn 52s Bit rate mode : Constant Bit rate : 192 Kbps Channel(s) : 2 channels Channel positions : Front: L R Sampling rate : 48.0 KHz Bit depth : 16 bits Stream size : 61.6 MiB (9%) Alignment : Split accross interleaves Interleave, duration : 40 ms (1.00 video frame) Interleave, preload duration : 500 ms
Скриншоты
Скачать

Скачать торрент! Праздник монстров / A Monsterous Holiday (Гордон Крам / Gordon Crum) [2013, Мультфильм, детский, семейный, приключения, полном, SATRip] Dub

Как скачивать? · Что такое торрент? · Рейтинг и ограничения

Сайт не распространяет и не хранит электронные версии произведений, а лишь предоставляет доступ к создаваемому пользователями каталогу ссылок на торрент-файлы, которые содержат только списки хеш-сумм

[Профиль] [ЛС]
Показать сообщения:    
Ответить на тему

Текущее время: Сегодня 19:05

Часовой пояс: GMT + 4



Вы не можете начинать темы
Вы не можете отвечать на сообщения
Вы не можете редактировать свои сообщения
Вы не можете удалять свои сообщения
Вы не можете голосовать в опросах
Вы не можете прикреплять файлы к сообщениям
Вы не можете скачивать файлы