Поворот не туда 6: Последний курорт / Wrong Turn 6: Last Resort (Валерий Милев / Valeri Milev) [2014, США, ужасы, BDRip-AVC] MVO + Original (Eng) + Sub (Rus, Eng)

Ответить на тему
 
Автор Сообщение

user ®

Стаж: 7 лет 7 месяцев

Сообщений: 20008

Пост Пост: #1 от 30-Окт-2014 04:10

[Цитировать]

Поворот не туда 6: Последний курорт / Wrong Turn 6: Last Resort
Страна: США
Жанр: ужасы
Год выпуска: 2014
Продолжительность: 01:30:30
Перевод: Профессиональный (многоголосый закадровый) лицензия
Оригинальная аудиодорожка: английский
Cубтитры: русские (Keith), английские (полные), английские (SDH)-Режиссер: Валерий Милев / Valeri Milev
В ролях: Энтони Иллот (Danny), Акилла Золл (Toni), Крис Джарвис (Jackson), Сэди Кац (Sally), Джо Гаминара (Bryan), Роксанна Паллетт (Jillian), Ролло Скиннер (Vic), Билли Эшворт (Rod), Гарри Белчер (Charlie), Джози Кидд (Agnes), Кикер Робинсон (Sheriff Doucette), Талита Люк-Эрдлей (Daria), Люк Казинс (Nick), Венетка Георгиева (Overweight woman), Радослав Парванов (Three Finger), Данко Йорданов (Sawtooth), Асен Асенов (One Eye)-Описание: В поисках внезапного и таинственного наследства, Дэнни и его друзья оказываются в Хобб Спрингс, на заброшенном курорте в горах Западной Вирджинии. Вскоре Дэнни узнает, что его родственники, которых он никогда не знал, вели довольно странный образ жизни, основывающийся на каннибализме. Дэнни придется выбирать между друзьями и родственниками.-СЭМПЛ
Тип релиза: BDRip-AVC
Исходник: Wrong.Turn.6.Last.Resort.2014.Blu-ray.1080p.AVC.DTS-HD.MA 5.1-DIY-lovekiss@HDWing
Контейнер: MKV
Видео: 1024x576p / 23.976 fps / 16:9 / High Profile 4.1 / AVC / ~ 2618 Kbps
Аудио 1: AC3 / 384 Kbps / 5.1 / 48 kHz / Russian / MVO - лицензия
Аудио 2: AC3 / 448 Kbps / 5.1 / 48 kHz / English / original
Формат субтитров: softsub (SRT)-IMDB * КиноПоиск
MediaInfo / x264 log
General
Complete name : Wrong.Turn.6.2014.BDRip-AVC.MVO.mkv
Format : Matroska
Format version : Version 2
File size : 2.18 GiB
Duration : 1h 30mn
Overall bit rate : 3 452 Kbps
Encoded date : UTC 2014-10-29 17:45:47
Writing application : mkvmerge v5.8.0 ('No Sleep / Pillow') built on Sep 2 2012 15:37:04
Writing library : libebml v1.2.3 + libmatroska v1.3.0
Video
ID : 1
Format : AVC
Format/Info : Advanced Video Codec
Format profile : High@L4.1
Format settings, CABAC : Yes
Format settings, ReFrames : 12 frames
Codec ID : V_MPEG4/ISO/AVC
Duration : 1h 30mn
Bit rate : 2 618 Kbps
Width : 1 024 pixels
Height : 576 pixels
Display aspect ratio : 16:9
Frame rate mode : Constant
Frame rate : 23.976 fps
Color space : YUV
Chroma subsampling : 4:2:0
Bit depth : 8 bits
Scan type : Progressive
Bits/(Pixel*Frame) : 0.185
Stream size : 1.61 GiB (74%)
Title : Wrong Turn 6 2014
Writing library : x264 core 142 r2479 dd79a61
Encoding settings : cabac=1 / ref=12 / deblock=1:-3:-3 / analyse=0x3:0x113 / me=umh / subme=11 / psy=1 / psy_rd=1.05:0.00 / mixed_ref=1 / me_range=32 / chroma_me=1 / trellis=2 / 8x8dct=1 / cqm=0 / deadzone=21,11 / fast_pskip=1 / chroma_qp_offset=-2 / threads=6 / lookahead_threads=1 / sliced_threads=0 / nr=0 / decimate=1 / interlaced=0 / bluray_compat=0 / constrained_intra=0 / bframes=8 / b_pyramid=2 / b_adapt=2 / b_bias=0 / direct=3 / weightb=1 / open_gop=0 / weightp=2 / keyint=240 / keyint_min=23 / scenecut=40 / intra_refresh=0 / rc=2pass / mbtree=0 / bitrate=2618 / ratetol=1.0 / qcomp=0.60 / qpmin=0 / qpmax=69 / qpstep=4 / cplxblur=20.0 / qblur=0.5 / ip_ratio=1.40 / pb_ratio=1.30 / aq=2:0.90
Default : Yes
Forced : No
Audio #1
ID : 2
Format : AC-3
Format/Info : Audio Coding 3
Mode extension : CM (complete main)
Format settings, Endianness : Big
Codec ID : A_AC3
Duration : 1h 30mn
Bit rate mode : Constant
Bit rate : 384 Kbps
Channel(s) : 6 channels
Channel positions : Front: L C R, Side: L R, LFE
Sampling rate : 48.0 KHz
Bit depth : 16 bits
Compression mode : Lossy
Stream size : 249 MiB (11%)
Title : RUS AC3 384 6ch MVO
Language : Russian
Default : Yes
Forced : No
Audio #2
ID : 3
Format : AC-3
Format/Info : Audio Coding 3
Mode extension : CM (complete main)
Format settings, Endianness : Big
Codec ID : A_AC3
Duration : 1h 30mn
Bit rate mode : Constant
Bit rate : 448 Kbps
Channel(s) : 6 channels
Channel positions : Front: L C R, Side: L R, LFE
Sampling rate : 48.0 KHz
Bit depth : 16 bits
Compression mode : Lossy
Stream size : 290 MiB (13%)
Title : ENG AC3 448 6ch original
Language : English
Default : No
Forced : No
Text #1
ID : 4
Format : UTF-8
Codec ID : S_TEXT/UTF8
Codec ID/Info : UTF-8 Plain Text
Title : RUS Sub Keith
Language : Russian
Default : No
Forced : No
Text #2
ID : 5
Format : UTF-8
Codec ID : S_TEXT/UTF8
Codec ID/Info : UTF-8 Plain Text
Title : ENG Sub full
Language : English
Default : No
Forced : No
Text #3
ID : 6
Format : UTF-8
Codec ID : S_TEXT/UTF8
Codec ID/Info : UTF-8 Plain Text
Title : ENG Sub SDH
Language : English
Default : No
Forced : No
Menu
00:00:00.000 : :Chapter 01
00:04:51.666 : :Chapter 02
00:08:46.568 : :Chapter 03
00:12:18.196 : :Chapter 04
00:13:59.839 : :Chapter 05
00:15:56.164 : :Chapter 06
00:17:37.848 : :Chapter 07
00:20:10.334 : :Chapter 08
00:23:33.245 : :Chapter 09
00:27:01.161 : :Chapter 10
00:29:46.868 : :Chapter 11
00:34:01.289 : :Chapter 12
00:36:03.912 : :Chapter 13
00:41:20.103 : :Chapter 14
00:43:54.090 : :Chapter 15
00:47:40.232 : :Chapter 16
00:53:11.271 : :Chapter 17
00:56:45.027 : :Chapter 18
01:00:17.280 : :Chapter 19
01:05:47.277 : :Chapter 20
01:07:31.464 : :Chapter 21
01:09:44.347 : :Chapter 22
01:12:59.750 : :Chapter 23
01:15:09.088 : :Chapter 24
01:17:32.147 : :Chapter 25
01:20:38.459 : :Chapter 26
01:23:17.993 : :Chapter 27
01:26:34.189 : :Chapter 28-x264 [info]: frame I:1140 Avg QP:14.93 size: 85613
x264 [info]: frame P:33315 Avg QP:17.93 size: 26296
x264 [info]: frame B:95745 Avg QP:20.20 size: 8389
x264 [info]: consecutive B-frames: 4.2% 5.8% 12.3% 24.9% 18.1% 25.9% 3.9% 2.8% 2.2%
Скриншот с названием Скриншоты
Скачать

Скачать торрент!

Как скачивать? · Что такое торрент? · Рейтинг и ограничения

Сайт не распространяет и не хранит электронные версии произведений, а лишь предоставляет доступ к создаваемому пользователями каталогу ссылок на торрент-файлы, которые содержат только списки хеш-сумм

[Профиль] [ЛС]
Показать сообщения:    
Ответить на тему

Текущее время: Сегодня 19:39

Часовой пояс: GMT + 4



Вы не можете начинать темы
Вы не можете отвечать на сообщения
Вы не можете редактировать свои сообщения
Вы не можете удалять свои сообщения
Вы не можете голосовать в опросах
Вы не можете прикреплять файлы к сообщениям
Вы не можете скачивать файлы