Фронтера / Frontera (Майкл Берри / Michael Berry) [2014, США, Драма, вестерн, BDRip 720p] VO (Береговых) + VO (datynet) + Sub Eng + Original Eng

Ответить на тему
 
Автор Сообщение

user ®

Стаж: 7 лет 7 месяцев

Сообщений: 20008

Пост Пост: #1 от 30-Окт-2014 01:00

[Цитировать]

Фронтера / Frontera Страна: США
Студия: MJW Films, Ocean Blue Entertainment
Жанр: Драма, вестерн
Год выпуска: 2014
Продолжительность: 01:42:56
Перевод 1: Одноголосый (закадровый)Виктор Береговых
Перевод 2: Одноголосый (закадровый)Антон Агапов aka datynet
Cубтитры: английские
Оригинальная аудиодорожка: английский
Режиссер: Майкл Берри/Michael Berry
В ролях: Эд Харрис, Майкл Пенья, Ева Лонгория, Эми Мэдиган, Даниэль Сакапа, Кристен Рейкс, Мэттью Пейдж, Сет Эдкинс, Лора Каннингэм, Алекс Найт
Описание: Убита жена бывшего шерифа Аризоны. Все указывает на причастность к убийству мексиканца, нелегально въехавшего на территорию США. Муж убитой решает объединиться с действующим шерифом, чтобы докопаться до истины…

Тип релиза: BDRip 720p[HDAccess]
Контейнер: MKV
Видео: AVC, 1280x534, 5346kbps, 23.976 fps
Аудио 1: Russian: 48 kHz, AC3, 3/2 (L,C,R,l,r) + LFE ch, ~640.00 kbps avg |Виктор Береговых|
Аудио 2: Russian: 48 kHz, AC3, 3/2 (L,C,R,l,r) + LFE ch, ~640.00 kbps avg |Антон Агапов aka datynet|
Аудио 3: English: 48 kHz, AC3, 3/2 (L,C,R,l,r) + LFE ch, ~640.00 kbps |Original|
Чаптеры:есть

x264 log
x264 ...:
frame I:1189 Avg QP:12.86 size:105764
frame P:32357 Avg QP:14.16 size: 48991
frame B:114541 Avg QP:15.48 size: 22078
consecutive B-frames: 2.2% 2.9% 9.3% 17.9% 16.7% 40.6% 5.3%
1.2% 1.8% 2.2%
MediaInfo
General
Unique ID : 195432744119561753407580211168712439049 (0x9306FA36F9CA355BA559D9867B6DB509)
Complete name : D:\Frontera.2014.720p.BluRay.DD5.1.x264-Talian.mkv
Format : Matroska
Format version : Version 2
File size : 5.33 GiB
Duration : 1h 42mn
Overall bit rate : 7 414 Kbps
Movie name : Frontera-Talian-
Encoded date : UTC 2014-10-28 07:53:31
Writing application : mkvmerge v5.7.0 ('The Whirlwind') built on Jul 8 2012 20:08:51
Writing library : libebml v1.2.3 + libmatroska v1.3.0
Video
ID : 1
Format : AVC
Format/Info : Advanced Video Codec
Format profile : High@L4.1
Format settings, CABAC : Yes
Format settings, ReFrames : 5 frames
Codec ID : V_MPEG4/ISO/AVC
Duration : 1h 42mn
Bit rate : 5 346 Kbps
Width : 1 280 pixels
Height : 534 pixels
Display aspect ratio : 2.40:1
Frame rate : 23.976 fps
Color space : YUV
Chroma subsampling : 4:2:0
Bit depth : 8 bits
Scan type : Progressive
Bits/(Pixel*Frame) : 0.326
Stream size : 3.84 GiB (72%)
Title : HDAccees
Writing library : x264 core 142 r2479kMod dd79a61
Encoding settings : cabac=1 / ref=5 / deblock=1:-3:-3 / analyse=0x3:0x133 / me=umh / subme=10 / psy=1 / fade_compensate=0.00 / psy_rd=1.04:0.00 / mixed_ref=1 / me_range=24 / chroma_me=1 / trellis=2 / 8x8dct=1 / cqm=0 / deadzone=21,11 / fast_pskip=1 / chroma_qp_offset=-2 / threads=12 / lookahead_threads=2 / sliced_threads=0 / nr=0 / decimate=1 / interlaced=0 / bluray_compat=0 / constrained_intra=0 / fgo=0 / bframes=9 / b_pyramid=2 / b_adapt=2 / b_bias=0 / direct=3 / weightb=1 / open_gop=0 / weightp=2 / keyint=230 / keyint_min=23 / scenecut=40 / intra_refresh=0 / rc_lookahead=40 / rc=crf / mbtree=0 / crf=15.1000 / qcomp=0.75 / qpmin=0 / qpmax=69 / qpstep=4 / vbv_maxrate=50000 / vbv_bufsize=62500 / crf_max=0.0 / nal_hrd=none / filler=0 / ip_ratio=1.30 / pb_ratio=1.20 / aq=2:0.85
Language : English
Default : Yes
Forced : No
Matrix coefficients : BT.709-5, BT.1361, IEC 61966-2-4 709, SMPTE RP177
Audio #1
ID : 2
Format : AC-3
Format/Info : Audio Coding 3
Mode extension : CM (complete main)
Format settings, Endianness : Big
Codec ID : A_AC3
Duration : 1h 42mn
Bit rate mode : Constant
Bit rate : 640 Kbps
Channel(s) : 6 channels
Channel positions : Front: L C R, Side: L R, LFE
Sampling rate : 48.0 KHz
Bit depth : 16 bits
Compression mode : Lossy
Stream size : 471 MiB (9%)
Title : VO-Виктор Береговых
Language : Russian
Default : Yes
Forced : No
Audio #2
ID : 3
Format : AC-3
Format/Info : Audio Coding 3
Mode extension : CM (complete main)
Format settings, Endianness : Big
Codec ID : A_AC3
Duration : 1h 42mn
Bit rate mode : Constant
Bit rate : 640 Kbps
Channel(s) : 6 channels
Channel positions : Front: L C R, Side: L R, LFE
Sampling rate : 48.0 KHz
Bit depth : 16 bits
Compression mode : Lossy
Stream size : 471 MiB (9%)
Title : VO-Антон Агапов aka datynet
Language : Russian
Default : No
Forced : No
Audio #3
ID : 4
Format : AC-3
Format/Info : Audio Coding 3
Mode extension : CM (complete main)
Format settings, Endianness : Big
Codec ID : A_AC3
Duration : 1h 42mn
Bit rate mode : Constant
Bit rate : 640 Kbps
Channel(s) : 6 channels
Channel positions : Front: L C R, Side: L R, LFE
Sampling rate : 48.0 KHz
Bit depth : 16 bits
Compression mode : Lossy
Stream size : 471 MiB (9%)
Title : Original
Language : English
Default : No
Forced : No
Text
ID : 5
Format : UTF-8
Codec ID : S_TEXT/UTF8
Codec ID/Info : UTF-8 Plain Text
Title : Sub-SDH
Language : English
Default : No
Forced : No
Menu
00:00:00.000 : en:00:00:00.000
00:08:11.241 : en:00:08:11.241
00:16:32.617 : en:00:16:32.617
00:25:46.754 : en:00:25:46.754
00:33:47.442 : en:00:33:47.442
00:42:36.929 : en:00:42:36.929
00:51:47.980 : en:00:51:47.980
01:00:33.338 : en:01:00:33.338
01:07:36.261 : en:01:07:36.261
01:16:15.196 : en:01:16:15.196
01:24:11.797 : en:01:24:11.797
01:37:24.756 : en:01:37:24.756
Скриншоты
Source vs Encode


Скачать

Скачать торрент!

Как скачивать? · Что такое торрент? · Рейтинг и ограничения

Сайт не распространяет и не хранит электронные версии произведений, а лишь предоставляет доступ к создаваемому пользователями каталогу ссылок на торрент-файлы, которые содержат только списки хеш-сумм

[Профиль] [ЛС]
Показать сообщения:    
Ответить на тему

Текущее время: Сегодня 01:44

Часовой пояс: GMT + 4



Вы не можете начинать темы
Вы не можете отвечать на сообщения
Вы не можете редактировать свои сообщения
Вы не можете удалять свои сообщения
Вы не можете голосовать в опросах
Вы не можете прикреплять файлы к сообщениям
Вы не можете скачивать файлы