Небеса реальны / Heaven Is for Real (Рэндалл Уоллес / Randall Wallace) [2014, США, драма, BDRip 1080p] MVO + Sub Rus, Eng + Original Eng

Ответить на тему
 
Автор Сообщение

user ®

Стаж: 7 лет 7 месяцев

Сообщений: 20008

Пост Пост: #1 от 30-Окт-2014 01:00

[Цитировать]

Небеса реальны / Heaven Is for Real
Страна: США
Студия: Roth Films, Screen Gems, TriStar Pictures
Жанр: драма
Год выпуска: 2014
Продолжительность: 01:39:29
Перевод: Профессиональный (многоголосый закадровый) BD EUR
Cубтитры: русские, английские
Оригинальная аудиодорожка: английский
Режиссер: Рэндалл Уоллес / Randall Wallace
В ролях: Грег Киннер, Келли Райлли, Томас Хейден Чёрч, Коннор Корам, Лэйн Стайлз, Марго Мартиндейл, Джейкоб Варгас, Таня Ромеро, Дансо Гордон, Роб Моран
Описание: Главный герой меняет свое мировоззрение после того, как его 4-летний сын выходит из комы и утверждает, что был в раю. В доказательство он приводит факты из жизни их семьи, которые просто не мог знать.

Sample
Тип релиза: BDRip 1080p - HDMaNiAcS
Контейнер: MKV
Видео: MPEG4 AVC Video, H264, 1920x802, 23.976 fps, 15.8 Mbps
Аудио: Russian (Dolby AC3, 6 ch, 640 kbps, 16 bits, 48.0 KHz) - MVO BD EUR
Аудио 2: English (DTS, 6 ch, 1509 kbps, 16 bits, 48.0 KHz) - оригинал
Формат субтитров: softsub (SRT)

MediaInfo
General
Unique ID : 193637684973830110926595963308827782385 (0x91AD42F740F2FE6B9144C518B450ACF1)
Complete name : L:\Heaven Is for Real\Heaven is for real 2014 BDRip 1080p-HDMaNiAcS.mkv
Format : Matroska
Format version : Version 4 / Version 2
File size : 12.5 GiB
Duration : 1h 39mn
Overall bit rate : 18.0 Mbps
Encoded date : UTC 2014-10-28 16:07:10
Writing application : mkvmerge v6.1.0 ('Old Devil') built on Mar 2 2013 14:32:37
Writing library : libebml v1.3.0 + libmatroska v1.4.0
Video
ID : 1
Format : AVC
Format/Info : Advanced Video Codec
Format profile : High@L4.1
Format settings, CABAC : Yes
Format settings, ReFrames : 5 frames
Codec ID : V_MPEG4/ISO/AVC
Duration : 1h 39mn
Bit rate : 15.8 Mbps
Width : 1 920 pixels
Height : 802 pixels
Display aspect ratio : 2.40:1
Frame rate mode : Constant
Frame rate : 23.976 fps
Color space : YUV
Chroma subsampling : 4:2:0
Bit depth : 8 bits
Scan type : Progressive
Bits/(Pixel*Frame) : 0.428
Stream size : 10.7 GiB (86%)
Writing library : x264 core 142 r2431kMod ac76440
Encoding settings : cabac=1 / ref=5 / deblock=1:-3:-3 / analyse=0x3:0x113 / me=tesa / subme=11 / psy=1 / fade_compensate=0.00 / psy_rd=1.10:0.00 / mixed_ref=1 / me_range=32 / chroma_me=1 / trellis=2 / 8x8dct=1 / cqm=0 / deadzone=21,11 / fast_pskip=0 / chroma_qp_offset=-2 / threads=18 / lookahead_threads=3 / sliced_threads=0 / nr=0 / decimate=0 / interlaced=0 / bluray_compat=0 / constrained_intra=0 / fgo=0 / bframes=8 / b_pyramid=2 / b_adapt=2 / b_bias=0 / direct=3 / weightb=1 / open_gop=0 / weightp=2 / keyint=250 / keyint_min=23 / scenecut=40 / intra_refresh=0 / rc_lookahead=40 / rc=2pass / mbtree=0 / bitrate=15800 / ratetol=1.0 / qcomp=0.60 / qpmin=10 / qpmax=69 / qpstep=4 / cplxblur=20.0 / qblur=0.5 / vbv_maxrate=40000 / vbv_bufsize=30000 / nal_hrd=none / filler=0 / ip_ratio=1.35 / pb_ratio=1.10 / aq=3:0.70
Language : English
Default : Yes
Forced : No
Audio #1
ID : 2
Format : AC-3
Format/Info : Audio Coding 3
Mode extension : CM (complete main)
Format settings, Endianness : Big
Codec ID : A_AC3
Duration : 1h 39mn
Bit rate mode : Constant
Bit rate : 640 Kbps
Channel count : 6 channels
Channel positions : Front: L C R, Side: L R, LFE
Sampling rate : 48.0 KHz
Bit depth : 16 bits
Compression mode : Lossy
Stream size : 455 MiB (4%)
Language : Russian
Default : Yes
Forced : No
Audio #2
ID : 3
Format : DTS
Format/Info : Digital Theater Systems
Mode : 16
Format settings, Endianness : Big
Codec ID : A_DTS
Duration : 1h 39mn
Bit rate mode : Constant
Bit rate : 1 509 Kbps
Channel count : 6 channels
Channel positions : Front: L C R, Side: L R, LFE
Sampling rate : 48.0 KHz
Bit depth : 16 bits
Compression mode : Lossy
Stream size : 1.05 GiB (8%)
Language : English
Default : No
Forced : No
Text #1
ID : 4
Format : UTF-8
Codec ID : S_TEXT/UTF8
Codec ID/Info : UTF-8 Plain Text
Language : Russian
Default : No
Forced : No
Text #2
ID : 5
Format : UTF-8
Codec ID : S_TEXT/UTF8
Codec ID/Info : UTF-8 Plain Text
Language : English
Default : No
Forced : No
Menu
00:00:00.000 : en:00:00:00.000
00:04:57.255 : en:00:04:57.255
00:11:09.669 : en:00:11:09.669
00:17:20.081 : en:00:17:20.081
00:22:07.618 : en:00:22:07.618
00:26:00.100 : en:00:26:00.100
00:33:09.487 : en:00:33:09.487
00:40:09.449 : en:00:40:09.449
00:44:37.842 : en:00:44:37.842
00:49:48.736 : en:00:49:48.736
00:56:35.309 : en:00:56:35.309
01:03:18.086 : en:01:03:18.086
01:06:33.448 : en:01:06:33.448
01:13:07.967 : en:01:13:07.967
01:16:29.585 : en:01:16:29.585
01:23:51.485 : en:01:23:51.485
x264
x264 [info]: profile High, level 4.1
x264 [info]: frame I:1010 Avg QP:16.71 size:247404
x264 [info]: frame P:30427 Avg QP:18.03 size:117404
x264 [info]: frame B:111699 Avg QP:18.59 size: 71353
x264 [info]: consecutive B-frames: 2.4% 3.1% 3.4% 23.7% 15.5% 26.8% 11.1% 12.9% 1.0%
Скриншоты
Скачать

Скачать торрент!

Как скачивать? · Что такое торрент? · Рейтинг и ограничения

Сайт не распространяет и не хранит электронные версии произведений, а лишь предоставляет доступ к создаваемому пользователями каталогу ссылок на торрент-файлы, которые содержат только списки хеш-сумм

[Профиль] [ЛС]
Показать сообщения:    
Ответить на тему

Текущее время: Сегодня 20:30

Часовой пояс: GMT + 4



Вы не можете начинать темы
Вы не можете отвечать на сообщения
Вы не можете редактировать свои сообщения
Вы не можете удалять свои сообщения
Вы не можете голосовать в опросах
Вы не можете прикреплять файлы к сообщениям
Вы не можете скачивать файлы