Метро (Антон Мегердичев) [2012, катастрофа, триллер, драма, HDRip] France Transfer

Ответить на тему
 
Автор Сообщение

user ®

Стаж: 7 лет 7 месяцев

Сообщений: 20008

Пост Пост: #1 от 30-Окт-2014 01:00

[Цитировать]

Метро
Жанр: Катастрофа, Триллер, Драма
Год выпуска: 2012
Продолжительность: 02:05:00
Режиссёр: Антон Мегердичев
Сценарий: Антон Мегердичев, Денис Курышев, Виктория Евсеева
Композитор: Юрий Потеенко
В ролях: Светлана Ходченкова, Кирилл Плетнёв, Анатолий Котенёв, Сергей Пускепалис, Анатолий Белый, Анфиса Вистингаузен, Алексей Бардуков, Екатерина Шпица, Елена Панова, Станислав Дужников, Сергей Сосновский, Ярослав Жалнин, Александр Яковлев, Владимир Стержаков, Александр Фисенко, Иван Макаревич, Максим Линников, Иван Лапин, Олег Заболотный, Дмитрий Орлов, Дмитрий Высоцкий, Александр Журман, Екатерина Директоренко, Александр Армер, Александр Вдовин, Денис Парамонов, Елена Гольянова, Николай Рябков, Михаил Фатеев, Елена Катышева, Ксения Березина, Сергей Коваленко, Вячеслав Иванов, Алексей Овсянников, Александр Тараньжин, Лилия Кондрова, Владимир Юматов, Иван Лешук, Алексей Фатеев
Описание: Широко развернувшееся в центре Москвы строительство новых зданий приводит к тому, что в одном из тоннелей метро между двумя станциями возникает трещина. Никто себе и представить не мог, что в результате нарушения герметичности перекрытия в тоннель хлынет вода из Москва-реки, и сотни пассажиров поезда окажутся во власти надвигающегося потопа. Бешеный поток воды грозит не только обрушением тоннелей метро, но и разрушением всего города. Среди попавших в беду людей - врач городской больницы Андрей Гарин и его дочь Ксюша. Гарин сражается с катастрофой, пытаясь спасти оставшихся в живых пассажиров, в том числе и любовника своей жены. Гарину придется побороть обиду, гнев и страх. Он должен выжить, чтобы вернуть свою любовь, семью, свою прежнюю счастливую жизнь...
Доп. информация:



Формат видео: AVI
Качество видео: HDRip (BDRip.720p) лицензия
Видео кодек: XviD
Аудио кодек: MP3
Видео: XviD, 640х272, 25fps, 700kbps
Аудио: MPEG Layer 3, 48000Hz, 128kbps, stereo
MediaInfo
General
Complete name : Metro.2012.O.HDRip.700.Fre.Transfer.MediaClub.CurHaJI.avi
Format : AVI
Format/Info : Audio Video Interleave
File size : 749 MiB
Duration : 2h 5mn
Overall bit rate : 838 Kbps
Writing application : VirtualDubMod 1.5.10.3 | www.virtualdub-fr.org || (build 2550/release)
Writing library : VirtualDubMod build 2550/release
Video
ID : 0
Format : MPEG-4 Visual
Format profile : Advanced Simple@L5
Format settings, BVOP : 2
Format settings, QPel : No
Format settings, GMC : No warppoints
Format settings, Matrix : Custom
Codec ID : XVID
Codec ID/Hint : XviD
Duration : 2h 5mn
Bit rate : 700 Kbps
Width : 640 pixels
Height : 272 pixels
Display aspect ratio : 2.35:1
Frame rate : 25.000 fps
Color space : YUV
Chroma subsampling : 4:2:0
Bit depth : 8 bits
Scan type : Progressive
Compression mode : Lossy
Bits/(Pixel*Frame) : 0.161
Stream size : 626 MiB (84%)
Writing library : XviD 1.2.1 (UTC 2008-12-04)
Audio
ID : 1
Format : MPEG Audio
Format version : Version 1
Format profile : Layer 3
Codec ID : 55
Codec ID/Hint : MP3
Duration : 2h 5mn
Bit rate mode : Constant
Bit rate : 128 Kbps
Channel(s) : 2 channels
Sampling rate : 48.0 KHz
Compression mode : Lossy
Stream size : 114 MiB (15%)
Alignment : Aligned on interleaves
Interleave, duration : 40 ms (1.00 video frame)
Interleave, preload duration : 504 ms
Writing library : L3.99r
Encoding settings : -m s -V 4 -q 2 -lowpass 17 -b 128
Скриншоты
Скачать

Скачать торрент!

Как скачивать? · Что такое торрент? · Рейтинг и ограничения

Сайт не распространяет и не хранит электронные версии произведений, а лишь предоставляет доступ к создаваемому пользователями каталогу ссылок на торрент-файлы, которые содержат только списки хеш-сумм

[Профиль] [ЛС]
Показать сообщения:    
Ответить на тему

Текущее время: Сегодня 15:36

Часовой пояс: GMT + 4



Вы не можете начинать темы
Вы не можете отвечать на сообщения
Вы не можете редактировать свои сообщения
Вы не можете удалять свои сообщения
Вы не можете голосовать в опросах
Вы не можете прикреплять файлы к сообщениям
Вы не можете скачивать файлы