Выпускной (Всеволод Бродский) [2014, комедия, WEB-DLRip]

Ответить на тему
 
Автор Сообщение

user ®

Стаж: 7 лет 7 месяцев

Сообщений: 20008

Пост Пост: #1 от 30-Окт-2014 01:00

[Цитировать]

Выпускной
Жанр: комедия
Год выпуска: 2014
Продолжительность: 01:32:21
Режиссёр: Всеволод Бродский
В ролях: Виктор Грудев, Кристина Исайкина, Сергей Походаев, Сергей Бурунов, Евгения Лютая, Константин Еремеев, Олеся Поташинская, Никита Павленко, Яна Енжаева, Тимофей Зайцев
Описание: Ученики 11 «А» готовятся к Выпускному по-разному: рэперы снимают клип к альбому, главный дебошир закупает алкоголь, девственник готовится к первому сексу, а влюбленный Ромео собирается надеть обручальное кольцо своей Джульетте. Они мечтают о будущем и строят планы на жизнь без опеки родителей. «Эту ночь ты не забудешь никогда!» — однозначный настрой одноклассников. Но у родителей свои взгляды на праздник -«вечеринка которую вы ждали 10 лет» становится настоящей войной поколений. Школа превращается в место боя — сегодня будут расставлены все точки над «и».
------------------------------------------------------

------------------------------------------------------
Качество видео: WEB-DLRip
Формат видео: AVI
Видео: 720x400, 25 fps, XviD MPEG-4 ~1725 kbps avg, 0.240 bit/pixel
Аудио: 48 kHz, AC3, 3/2 (L,C,R,l,r) + LFE ch, ~384.00 kbps avg
MediaInfo
Format : AVI
Format/Info : Audio Video Interleave
File size : 1.37 GiB
Duration : 1h 32mn
Overall bit rate : 2 119 Kbps
Writing application : VirtualDubMod 1.5.10.2 (build 2540/release)
Writing library : VirtualDubMod build 2540/release
Video
ID : 0
Format : MPEG-4 Visual
Format profile : Advanced Simple@L5
Format settings, BVOP : 2
Format settings, QPel : No
Format settings, GMC : No warppoints
Format settings, Matrix : Default (MPEG)
Codec ID : XVID
Codec ID/Hint : XviD
Duration : 1h 32mn
Bit rate : 1 725 Kbps
Width : 720 pixels
Height : 400 pixels
Display aspect ratio : 16:9
Frame rate : 25.000 fps
Color space : YUV
Chroma subsampling : 4:2:0
Bit depth : 8 bits
Scan type : Progressive
Compression mode : Lossy
Bits/(Pixel*Frame) : 0.240
Stream size : 1.11 GiB (81%)
Writing library : XviD 1.2.1 (UTC 2008-12-04)
Audio
ID : 1
Format : AC-3
Format/Info : Audio Coding 3
Mode extension : CM (complete main)
Format settings, Endianness : Big
Codec ID : 2000
Duration : 1h 32mn
Bit rate mode : Constant
Bit rate : 384 Kbps
Channel(s) : 6 channels
Channel positions : Front: L C R, Side: L R, LFE
Sampling rate : 48.0 KHz
Bit depth : 16 bits
Compression mode : Lossy
Stream size : 254 MiB (18%)
Alignment : Split accross interleaves
Interleave, duration : 40 ms (1.00 video frame)
Interleave, preload duration : 500 ms
Скриншот c названием фильма Скриншоты
Скачать

Скачать торрент!

Как скачивать? · Что такое торрент? · Рейтинг и ограничения

Сайт не распространяет и не хранит электронные версии произведений, а лишь предоставляет доступ к создаваемому пользователями каталогу ссылок на торрент-файлы, которые содержат только списки хеш-сумм

[Профиль] [ЛС]
Показать сообщения:    
Ответить на тему

Текущее время: Сегодня 02:04

Часовой пояс: GMT + 4



Вы не можете начинать темы
Вы не можете отвечать на сообщения
Вы не можете редактировать свои сообщения
Вы не можете удалять свои сообщения
Вы не можете голосовать в опросах
Вы не можете прикреплять файлы к сообщениям
Вы не можете скачивать файлы