Привязанные к дому / Housebound (Джерард Джонстоун / Gerard Johnstone) [2014, Новая Зеландия, Триллер, ужасы, комедия, HDRip] VO (Антон Агапов)

Ответить на тему
 
Автор Сообщение

user ®

Стаж: 7 лет 7 месяцев

Сообщений: 20008

Пост Пост: #1 от 29-Окт-2014 11:25

[Цитировать]

Привязанные к дому / Housebound
Страна: Новая Зеландия
Жанр: Триллер, ужасы, комедия
Год выпуска: 2014
Продолжительность: 01:46:46
Перевод: Одноголосый закадровый Антон Агапов [datynet] по тексту Janetta
Cубтитры: нет
Режиссер: Джерард Джонстоун / Gerard Johnstone
В ролях: Моргана О Рейли, Рима Те Вьята, Глен-Поль Waru, Росс Харпер, Камерон Родс, Райан Лампп, Мик Иннес, Брюс Хопкинс, Уоллес Чепмен, Миллен Бейрд
Описание: Кайли Бакнелл вынуждена вернуться в фамильный особняк после того, как суд приговорил ее к заключению под домашний арест. Ее наказание за неудачную попытку ограбить банкомат осложняется еще и тем, что Кайли вынуждена жить со своей безумной мамой Мириам, которая убеждена, что особняк кишит приведениями…

Качество видео: HDRip
Формат видео: AVI
Видео: 720x304 (2.37:1), 25 fps, XviD MPEG-4 ~1594 kbps avg, 0.29 bit/pixel
Аудио: 44.100 kHz, MPEG Layer 3, 2 ch, ~192.00 kbps avg
MediaInfo
General
Complete name : E:\Films\New\Privyazannye.k.domu.2014.avi
Format : AVI
Format/Info : Audio Video Interleave
File size : 1.34 GiB
Duration : 1h 46mn
Overall bit rate : 1 796 Kbps
Writing library : VirtualDub build 34753/release
Video
ID : 0
Format : MPEG-4 Visual
Format profile : Advanced Simple@L5
Format settings, BVOP : 2
Format settings, QPel : No
Format settings, GMC : No warppoints
Format settings, Matrix : Default (H.263)
Muxing mode : Packed bitstream
Codec ID : XVID
Codec ID/Hint : XviD
Duration : 1h 46mn
Bit rate : 1 594 Kbps
Width : 720 pixels
Height : 304 pixels
Display aspect ratio : 2.35:1
Frame rate : 25.000 fps
Color space : YUV
Chroma subsampling : 4:2:0
Bit depth : 8 bits
Scan type : Progressive
Compression mode : Lossy
Bits/(Pixel*Frame) : 0.291
Stream size : 1.19 GiB (89%)
Writing library : XviD 64
Audio
ID : 1
Format : MPEG Audio
Format version : Version 1
Format profile : Layer 3
Codec ID : 55
Codec ID/Hint : MP3
Duration : 1h 46mn
Bit rate mode : Constant
Bit rate : 192 Kbps
Channel(s) : 2 channels
Sampling rate : 44.1 KHz
Compression mode : Lossy
Stream size : 147 MiB (11%)
Alignment : Split accross interleaves
Interleave, duration : 40 ms (1.00 video frame)
Interleave, preload duration : 500 ms
Скриншоты
Скачать

Скачать торрент!

Как скачивать? · Что такое торрент? · Рейтинг и ограничения

Сайт не распространяет и не хранит электронные версии произведений, а лишь предоставляет доступ к создаваемому пользователями каталогу ссылок на торрент-файлы, которые содержат только списки хеш-сумм

[Профиль] [ЛС]
Показать сообщения:    
Ответить на тему

Текущее время: Сегодня 01:47

Часовой пояс: GMT + 4



Вы не можете начинать темы
Вы не можете отвечать на сообщения
Вы не можете редактировать свои сообщения
Вы не можете удалять свои сообщения
Вы не можете голосовать в опросах
Вы не можете прикреплять файлы к сообщениям
Вы не можете скачивать файлы