Аномалия / The Anomaly (Ноэль Кларк / Noel Clarke) [2014, Великобритания, фантастика, боевик, BDRip 720p] Dub + Sub Eng + Original Eng

Ответить на тему
 
Автор Сообщение

user ®

Стаж: 7 лет 7 месяцев

Сообщений: 20008

Пост Пост: #1 от 29-Окт-2014 05:05

[Цитировать]

Аномалия / The Anomaly Страна: Великобритания
Студия: Universal Home Entertainment
Жанр: фантастика, боевик
Год выпуска: 2014
Продолжительность: 01:36:38
Перевод: Профессиональный (дублированный)R5
Cубтитры: английские(Full,SDH)
Оригинальная аудиодорожка: английский
Режиссер: Ноэль Кларк / Noel Clarke
В ролях: Ноэль Кларк, Иен Сомерхолдер, Брайан Кокс, Алексис Нэп, Люк Хемсворт, Ниал Грег Фултон, Майкл Биспинг, Али Кук, Арт Паркинсон
Описание: Бывший солдат попадает в плен. Очнувшись, он узнает, что у него осталось всего несколько минут, чтобы понять, как он туда попал…

Тип релиза: BDRip 720p[HDAccess]
Контейнер: MKV
Видео: AVC, 1280x544, 9103kbps, 23.976 fps
Аудио 1: Russian: 48 kHz, AC3, 3/2 (L,C,R,l,r) + LFE ch, ~384.00 kbps avg |R5|
Аудио 2: English: 48 kHz, AC3, 3/2 (L,C,R,l,r) + LFE ch, ~640.00 kbps |Original|
Чаптеры:есть

x264 log
x264 ...:
frame I:1584 Avg QP:13.71 size:132294
frame P:29187 Avg QP:14.75 size: 67327
frame B:108259 Avg QP:15.36 size: 42221
consecutive B-frames: 2.7% 1.8% 6.2% 15.0% 17.6% 47.6% 6.1%
1.8% 1.2%
MediaInfo
General
Unique ID : 179268018090212570625217686907375842691 (0x86DDC3B071F547D59AC3639781C7F583)
Complete name : D:\The.Anomaly.2014.720p.BluRay.x264-Talian-.mkv
Format : Matroska
Format version : Version 2
File size : 6.98 GiB
Duration : 1h 36mn
Overall bit rate : 10.3 Mbps
Movie name : The Anomaly-Talian-
Encoded date : UTC 2014-10-27 08:27:50
Writing application : mkvmerge v5.7.0 ('The Whirlwind') built on Jul 8 2012 20:08:51
Writing library : libebml v1.2.3 + libmatroska v1.3.0
Video
ID : 1
Format : AVC
Format/Info : Advanced Video Codec
Format profile : High@L4.1
Format settings, CABAC : Yes
Format settings, ReFrames : 12 frames
Codec ID : V_MPEG4/ISO/AVC
Duration : 1h 36mn
Bit rate : 9 103 Kbps
Width : 1 280 pixels
Height : 544 pixels
Display aspect ratio : 2.35:1
Frame rate : 23.976 fps
Color space : YUV
Chroma subsampling : 4:2:0
Bit depth : 8 bits
Scan type : Progressive
Bits/(Pixel*Frame) : 0.545
Stream size : 6.14 GiB (88%)
Title : HDAccess
Writing library : x264 core 142 r2479kMod dd79a61
Encoding settings : cabac=1 / ref=12 / deblock=1:-3:-3 / analyse=0x3:0x133 / me=umh / subme=10 / psy=1 / fade_compensate=0.00 / psy_rd=0.98:0.00 / mixed_ref=1 / me_range=24 / chroma_me=1 / trellis=2 / 8x8dct=1 / cqm=0 / deadzone=21,11 / fast_pskip=0 / chroma_qp_offset=-2 / threads=18 / lookahead_threads=3 / sliced_threads=0 / nr=0 / decimate=1 / interlaced=0 / bluray_compat=0 / constrained_intra=0 / fgo=0 / bframes=8 / b_pyramid=2 / b_adapt=2 / b_bias=0 / direct=3 / weightb=1 / open_gop=0 / weightp=2 / keyint=230 / keyint_min=23 / scenecut=40 / intra_refresh=0 / rc_lookahead=40 / rc=crf / mbtree=0 / crf=15.6000 / qcomp=0.65 / qpmin=0 / qpmax=69 / qpstep=4 / vbv_maxrate=50000 / vbv_bufsize=62500 / crf_max=0.0 / nal_hrd=none / filler=0 / ip_ratio=1.20 / pb_ratio=1.10 / aq=1:0.65
Language : English
Default : Yes
Forced : No
Audio #1
ID : 2
Format : AC-3
Format/Info : Audio Coding 3
Mode extension : CM (complete main)
Format settings, Endianness : Big
Codec ID : A_AC3
Duration : 1h 36mn
Bit rate mode : Constant
Bit rate : 384 Kbps
Channel(s) : 6 channels
Channel positions : Front: L C R, Side: L R, LFE
Sampling rate : 48.0 KHz
Bit depth : 16 bits
Compression mode : Lossy
Stream size : 265 MiB (4%)
Title : DUB-R5
Language : Russian
Default : Yes
Forced : No
Audio #2
ID : 3
Format : AC-3
Format/Info : Audio Coding 3
Mode extension : CM (complete main)
Format settings, Endianness : Big
Codec ID : A_AC3
Duration : 1h 36mn
Bit rate mode : Constant
Bit rate : 640 Kbps
Channel(s) : 6 channels
Channel positions : Front: L C R, Side: L R, LFE
Sampling rate : 48.0 KHz
Bit depth : 16 bits
Compression mode : Lossy
Stream size : 442 MiB (6%)
Title : Original
Language : English
Default : No
Forced : No
Text #1
ID : 4
Format : UTF-8
Codec ID : S_TEXT/UTF8
Codec ID/Info : UTF-8 Plain Text
Title : Sub-full
Language : English
Default : No
Forced : No
Text #2
ID : 5
Format : UTF-8
Codec ID : S_TEXT/UTF8
Codec ID/Info : UTF-8 Plain Text
Title : Sub-SDH
Language : English
Default : No
Forced : No
Menu
00:00:00.000 : en:00:00:00.000
00:08:58.955 : en:00:08:58.955
00:16:34.535 : en:00:16:34.535
00:23:41.712 : en:00:23:41.712
00:31:54.663 : en:00:31:54.663
00:40:54.577 : en:00:40:54.577
00:51:02.059 : en:00:51:02.059
00:59:28.148 : en:00:59:28.148
01:05:38.768 : en:01:05:38.768
01:14:22.458 : en:01:14:22.458
01:22:12.386 : en:01:22:12.386
01:28:36.144 : en:01:28:36.144
Скриншоты
Source vs Encode


Скачать

Скачать торрент!

Как скачивать? · Что такое торрент? · Рейтинг и ограничения

Сайт не распространяет и не хранит электронные версии произведений, а лишь предоставляет доступ к создаваемому пользователями каталогу ссылок на торрент-файлы, которые содержат только списки хеш-сумм

[Профиль] [ЛС]
Показать сообщения:    
Ответить на тему

Текущее время: Сегодня 18:34

Часовой пояс: GMT + 4



Вы не можете начинать темы
Вы не можете отвечать на сообщения
Вы не можете редактировать свои сообщения
Вы не можете удалять свои сообщения
Вы не можете голосовать в опросах
Вы не можете прикреплять файлы к сообщениям
Вы не можете скачивать файлы