Типа копы / Let\'s Be Cops (Люк Гринфилд / Luke Greenfield) [2014 г., США, комедия, криминал, HDRip] Dub (Line)

Ответить на тему
 
Автор Сообщение

user ®

Стаж: 7 лет 7 месяцев

Сообщений: 20008

Пост Пост: #1 от 28-Окт-2014 21:00

[Цитировать]

Типа копы / Let's Be Cops«Левые копы. Реальные проблемы»_____________________________________________________________________ Год выпуска: 2014
Производство: США
Жанр: комедия, криминал
Перевод: Профессиональный (полное дублирование) [Line]
Субтитры: Отсутствуют
Оригинальная дорожка: Отсутствует
Продолжительность: 01:44:28
Режиссер: Люк Гринфилд / Luke Greenfield
В ролях: Дэймон Уайанс мл., Джейк Джонсон, Роб Риггл, Нина Добрев, Джеймс Д’Арси, Энди Гарсиа, Кигэн-Майкл Ки, Джон Лажуа, Том Мардиросян, Наташа Леггеро
Описание: Получив приглашение на костюмированную вечеринку, два нерадивых приятеля решают нарядиться полицейскими, и вдруг их популярность среди гостей подскакивает до максимума. На волне успеха парни продолжают игру. Но неожиданно псевдокопы оказываются впутанными в реальную криминальную историю, и теперь им придется применить свои фальшивые значки по полной.
Качество видео: HDRip [сэмпл]
Видеокодек: XviD
Аудиокодек: AC3
Видео: 720x384 (1.88:1), 23.976 fps, XviD build 50, 1735 kbps avg, 0.26 bit/pixel
Аудио: 48 kHz, AC3 Dolby Digital, 2/0 (L,R) ch, 128 kbps
Рейтинг Скриншоты MediaInfo

Общее
Полное имя : D:\Типа.копы.avi
Формат : AVI
Формат/Информация : Audio Video Interleave
Размер файла : 1,37 Гбайт
Продолжительность : 1 ч. 44 м.
Общий поток : 1873 Кбит/сек
Программа кодирования : VirtualDubMod 1.5.10.2 (build 2540/release)
Библиотека кодирования : VirtualDubMod build 2540/release
Видео
Идентификатор : 0
Формат : MPEG-4 Visual
Профиль формата : Advanced Simple@L5
Параметр BVOP формата : 2
Параметр QPel формата : Нет
Параметр GMC формата : Без точки перехода
Параметр матрицы формата : Default (MPEG)
Идентификатор кодека : XVID
Идентификатор кодека/Подсказка : XviD
Продолжительность : 1 ч. 44 м.
Битрейт : 1736 Кбит/сек
Ширина : 720 пикселей
Высота : 384 пикселя
Соотношение сторон : 1,85:1
Частота кадров : 23,976 кадра/сек
Цветовое пространство : YUV
Субдискретизация насыщенности : 4:2:0
Битовая глубина : 8 бит
Тип развёртки : Прогрессивная
Метод сжатия : С потерями
Бит/(Пиксели*Кадры) : 0.262
Размер потока : 1,27 Гбайт (93%)
Библиотека кодирования : XviD 1.2.1 (UTC 2008-12-04)
Аудио
Идентификатор : 1
Формат : AC-3
Формат/Информация : Audio Coding 3
Расширение режима : CM (complete main)
Параметр Endianness формата : Big
Идентификатор кодека : 2000
Продолжительность : 1 ч. 44 м.
Вид битрейта : Постоянный
Битрейт : 128 Кбит/сек
Каналы : 2 канала
Расположение каналов : Front: L R
Частота : 48,0 КГц
Битовая глубина : 16 бит
Метод сжатия : С потерями
Размер потока : 95,6 Мбайт (7%)
Выравнивание : Разделение по промежуткам
Продолжительность промежутка : 42 мс. (1,00 видеокадр)
Время предзагрузки промежутка : 500 мс.
Скачать

Скачать торрент!

Как скачивать? · Что такое торрент? · Рейтинг и ограничения

Сайт не распространяет и не хранит электронные версии произведений, а лишь предоставляет доступ к создаваемому пользователями каталогу ссылок на торрент-файлы, которые содержат только списки хеш-сумм

[Профиль] [ЛС]
Показать сообщения:    
Ответить на тему

Текущее время: Сегодня 18:35

Часовой пояс: GMT + 4



Вы не можете начинать темы
Вы не можете отвечать на сообщения
Вы не можете редактировать свои сообщения
Вы не можете удалять свои сообщения
Вы не можете голосовать в опросах
Вы не можете прикреплять файлы к сообщениям
Вы не можете скачивать файлы