Хотел бы я быть здесь / Wish I Was Here (Зак Брафф / Zach Braff) [2014, США, драма, комедия, BDRip-AVC] Dub (R5) + Original (Eng) + Subs (Eng)

Ответить на тему
 
Автор Сообщение

user ®

Стаж: 7 лет 7 месяцев

Сообщений: 20008

Пост Пост: #1 от 28-Окт-2014 14:40

[Цитировать]

Хотел бы я быть здесь / Wish I Was Here«Жизнь — это шанс. Воспользуйся им»- Страна: США
Жанр: драма, комедия
Год выпуска: 2014
Продолжительность: 01:46:33-Перевод: Профессиональный (дублированный) - R5
Оригинальная аудиодорожка: English
Cубтитры: English (full+full SDH)
Навигация по главам: присутствует - 20 глав-Режиссер: Зак Брафф / Zach Braff
В ролях: Зак Брафф, Пирс Гэнон, Кейт Хадсон, Джои Кинг, Александр Чаплин, Лесли Дэвид Бэйкер, Джеймс Эйври, Ато Эссонда, Джим Парсонс, Марк Тудиум, Мэнди Пэтинкин, Джош Гад, Аллан Рич, Эшли Грин, Майкл Уэстон, Коуди Салливан, Брюс Нозик, Мэтт Уинстон, Дональд Фэйсон.-Описание: История Айдана Блума — актера, отца и мужа, который в свои 35 лет все еще пытается найти себя, цель своей жизни. Уча жизни двух своих детей, Айдан постепенно обнаруживает некоторые части себя, которые он не мог найти раньше…-
Download sample-Качество видео: BDRip-AVC | исх. BDRemux 1080p - thx: HDclub
Формат: MKV-Видео: 1 152x480 (2.40:1), 23.976 fps, H.264 ~1957 kbps avg, 0.144 bit/pixel
Аудио №1: 48.0 kHz, AC3 Dolby Digital, 3/2 (L,C,R,l,r) + LFE ch, ~384 kbps | Профессиональный (дублированный) - R5
Аудио №2: 48.0 kHz, AC3 Dolby Digital, 3/2 (L,C,R,l,r) + LFE ch, ~448 kbps | English-

MediaInfo
General
Unique ID : 172721087811165295849870743821520482720 (0x81F0DF1AE750FDCF84A82057961C31A0)
Complete name : D:\Фильмы\Рипы\Wish I Was Here.2014.BDRip-AVC.eFK tRuAVC.mkv
Format : Matroska
Format version : Version 4 / Version 2
File size : 2.08 GiB
Duration : 1h 46mn
Overall bit rate : 2 792 Kbps
Movie name : Хотел бы я быть здесь / Wish I Was Here (2014) - Release for rutracker
Encoded date : UTC 2014-10-28 06:41:09
Writing application : mkvmerge v7.2.0 ('On Every Street') 64bit built on Sep 13 2014 15:52:10
Writing library : libebml v1.3.0 + libmatroska v1.4.1
DURATION : 01:37:25.924000000
NUMBER_OF_FRAMES : 1686
NUMBER_OF_BYTES : 57264
_STATISTICS_WRITING_APP : mkvmerge v7.2.0 ('On Every Street') 64bit built on Sep 13 2014 15:52:10
_STATISTICS_WRITING_DATE_UTC : 2014-10-28 06:41:09
_STATISTICS_TAGS : BPS DURATION NUMBER_OF_FRAMES NUMBER_OF_BYTES
Attachment : Yes
Video
ID : 1
Format : AVC
Format/Info : Advanced Video Codec
Format profile : High@L4.1
Format settings, CABAC : Yes
Format settings, ReFrames : 14 frames
Codec ID : V_MPEG4/ISO/AVC
Duration : 1h 46mn
Bit rate : 1 905 Kbps
Width : 1 152 pixels
Height : 480 pixels
Display aspect ratio : 2.40:1
Frame rate mode : Constant
Frame rate : 23.976 fps
Color space : YUV
Chroma subsampling : 4:2:0
Bit depth : 8 bits
Scan type : Progressive
Bits/(Pixel*Frame) : 0.144
Stream size : 1.42 GiB (68%)
Title : eFK tRuAVC
Writing library : x264 core 142 r2479kMod dd79a61
Encoding settings : cabac=1 / ref=14 / deblock=1:-1:-1 / analyse=0x3:0x133 / me=umh / subme=11 / psy=1 / fade_compensate=0.00 / psy_rd=1.15:0.10 / mixed_ref=1 / me_range=48 / chroma_me=1 / trellis=2 / 8x8dct=1 / cqm=0 / deadzone=21,11 / fast_pskip=0 / chroma_qp_offset=-3 / threads=12 / lookahead_threads=3 / sliced_threads=0 / nr=0 / decimate=1 / interlaced=0 / bluray_compat=0 / constrained_intra=0 / fgo=0 / bframes=16 / b_pyramid=2 / b_adapt=2 / b_bias=0 / direct=3 / weightb=1 / open_gop=0 / weightp=2 / keyint=250 / keyint_min=23 / scenecut=40 / intra_refresh=0 / rc_lookahead=60 / rc=crf / mbtree=0 / crf=19.5000 / qcomp=0.80 / qpmin=0 / qpmax=69 / qpstep=4 / vbv_maxrate=50000 / vbv_bufsize=62500 / crf_max=0.0 / nal_hrd=none / filler=0 / ip_ratio=1.25 / pb_ratio=1.15 / aq=3:0.95
Language : English
Default : Yes
Forced : No
Color primaries : BT.709
Transfer characteristics : BT.709
Matrix coefficients : BT.709
DURATION : 01:46:33.054000000
NUMBER_OF_FRAMES : 153280
NUMBER_OF_BYTES : 1564290185
_STATISTICS_WRITING_APP : mkvmerge v7.2.0 ('On Every Street') 64bit built on Sep 13 2014 15:52:10
_STATISTICS_WRITING_DATE_UTC : 2014-10-28 06:41:09
_STATISTICS_TAGS : BPS DURATION NUMBER_OF_FRAMES NUMBER_OF_BYTES
Audio #1
ID : 2
Format : AC-3
Format/Info : Audio Coding 3
Mode extension : CM (complete main)
Format settings, Endianness : Big
Codec ID : A_AC3
Duration : 1h 46mn
Bit rate mode : Constant
Bit rate : 384 Kbps
Channel count : 6 channels
Channel positions : Front: L C R, Side: L R, LFE
Sampling rate : 48.0 KHz
Bit depth : 16 bits
Compression mode : Lossy
Stream size : 293 MiB (14%)
Title : Dub (R5)
Language : Russian
Default : Yes
Forced : No
Audio #2
ID : 3
Format : AC-3
Format/Info : Audio Coding 3
Mode extension : CM (complete main)
Format settings, Endianness : Big
Codec ID : A_AC3
Duration : 1h 46mn
Bit rate mode : Constant
Bit rate : 448 Kbps
Channel count : 6 channels
Channel positions : Front: L C R, Side: L R, LFE
Sampling rate : 48.0 KHz
Bit depth : 16 bits
Compression mode : Lossy
Stream size : 341 MiB (16%)
Language : English
Default : No
Forced : No
Text #1
ID : 4
Format : UTF-8
Codec ID : S_TEXT/UTF8
Codec ID/Info : UTF-8 Plain Text
Title : full
Language : English
Default : No
Forced : No
Text #2
ID : 5
Format : UTF-8
Codec ID : S_TEXT/UTF8
Codec ID/Info : UTF-8 Plain Text
Title : full SDH
Language : English
Default : No
Forced : No
Menu
00:00:00.000 : en:00:00:00.000
00:06:54.122 : en:00:06:54.122
00:11:44.704 : en:00:11:44.704
00:15:10.243 : en:00:15:10.243
00:21:38.881 : en:00:21:38.881
00:26:28.212 : en:00:26:28.212
00:31:29.221 : en:00:31:29.221
00:35:29.586 : en:00:35:29.586
00:39:58.896 : en:00:39:58.896
00:44:21.868 : en:00:44:21.868
00:47:58.334 : en:00:47:58.334
00:51:24.707 : en:00:51:24.707
00:57:10.052 : en:00:57:10.052
01:02:33.583 : en:01:02:33.583
01:10:12.291 : en:01:10:12.291
01:16:19.074 : en:01:16:19.074
01:21:15.537 : en:01:21:15.537
01:28:06.698 : en:01:28:06.698
01:35:15.209 : en:01:35:15.209
01:39:16.742 : en:01:39:16.742
x264 log
x264 [info]: frame I:1300 Avg QP:16.53 size: 73825
x264 [info]: frame P:30407 Avg QP:18.17 size: 20635
x264 [info]: frame B:121573 Avg QP:19.02 size: 6917
x264 [info]: consecutive B-frames: 1.7% 1.8% 5.7% 18.0% 16.9% 36.3% 7.9% 2.7% 2.3% 1.1% 1.8% 0.6% 0.5% 0.9% 0.4% 0.3% 1.2%
x264 [info]: mb I I16..4: 10.3% 70.5% 19.2%
x264 [info]: mb P I16..4: 0.3% 5.3% 0.9% P16..4: 32.4% 35.7% 12.8% 2.1% 0.2% skip:10.2%
x264 [info]: mb B I16..4: 0.0% 0.5% 0.1% B16..8: 32.0% 19.0% 3.2% direct: 3.9% skip:41.4% L0:43.8% L1:45.2% BI:11.0%
x264 [info]: 8x8 transform intra:77.4% inter:57.8%
x264 [info]: direct mvs spatial:99.8% temporal:0.2%
x264 [info]: coded y,uvDC,uvAC intra: 92.4% 92.4% 80.8% inter: 16.6% 16.0% 5.3%
x264 [info]: i16 v,h,dc,p: 37% 9% 6% 48%
x264 [info]: i8 v,h,dc,ddl,ddr,vr,hd,vl,hu: 10% 9% 6% 9% 13% 13% 14% 12% 14%
x264 [info]: i4 v,h,dc,ddl,ddr,vr,hd,vl,hu: 14% 10% 4% 8% 14% 14% 14% 11% 13%
x264 [info]: i8c dc,h,v,p: 43% 21% 18% 18%
x264 [info]: Weighted P-Frames: Y:3.8% UV:2.4%
x264 [info]: ref P L0: 45.9% 10.2% 17.5% 5.7% 5.2% 3.5% 3.3% 1.6% 1.6% 1.2% 1.3% 1.0% 1.1% 0.9% 0.1% 0.0%
x264 [info]: ref B L0: 67.5% 12.7% 6.2% 3.3% 2.4% 2.3% 1.6% 1.0% 0.8% 0.8% 0.7% 0.4% 0.2%
x264 [info]: ref B L1: 91.1% 8.9%
x264 [info]: kb/s:1957.49
x264 [total]: encoded 153280 frames, 8.76 fps, 1957.49 kb/s, duration 4:51:31.12
Screenshots Comparison
Скачать

Скачать торрент!

Как скачивать? · Что такое торрент? · Рейтинг и ограничения

Сайт не распространяет и не хранит электронные версии произведений, а лишь предоставляет доступ к создаваемому пользователями каталогу ссылок на торрент-файлы, которые содержат только списки хеш-сумм

[Профиль] [ЛС]
Показать сообщения:    
Ответить на тему

Текущее время: Сегодня 13:51

Часовой пояс: GMT + 4



Вы не можете начинать темы
Вы не можете отвечать на сообщения
Вы не можете редактировать свои сообщения
Вы не можете удалять свои сообщения
Вы не можете голосовать в опросах
Вы не можете прикреплять файлы к сообщениям
Вы не можете скачивать файлы