Дети Хиросимы / Gembaku no ko / Children of Hiroshima (Кането Синдо / Kaneto Shindo) [1952, Япония, драма, DVDRip] Sub Rus, Eng + original

Ответить на тему
 
Автор Сообщение

user ®

Стаж: 13 лет

Сообщений: 15071

Пост Пост: #1 от 28-Окт-2014 11:30

[Цитировать]

Дети Хиросимы / Gembaku no ko / Children of Hiroshima
Страна: Япония
Жанр: драма
Год выпуска: 1952
Продолжительность: 01:35:35
Перевод: Субтитры
Cубтитры: русские (pstrkim), английские
Оригинальная аудиодорожка: японский

Режиссер: Кането Синдо / Kaneto Shindo
В ролях: Нобуко Отова, Осаму Такидзава, Нива Саито, Цунэко Яманака, Шиня Офуджи, Такаши Ито, Тикако Хосокава, Масао Симидзу, Юрико Ханабуса, Таниэ Китабаяси
Описание: Такако Исикава одна из всей семьи уцелела во время атомной бомбардировки Хиросимы, после войны она работает учителем на одном из островов Японского внутреннего моря. Во время своего летнего отпуска, она возвращается в Хиросиму, чтобы посетить могилы своих родителей и младшей сестры, которые были убиты во время взрыва, а также узнать как сложилась жизнь детей с детского сада, где она раньше работала.
Качество видео: [url=http://***/forum/viewtopic.php?t=2896207]DVDRip[/url]
Формат видео: AVI
Видео: 656x480 (1.37:1), 23.976 fps, XviD build 73 ~1946 kbps avg, 0.26 bit/pixel
Аудио: 48 kHz, AC3 Dolby Digital, 1/0 (C) ch, ~224 kbps


Фрагмент субтитров
245
00:32:00,778 --> 00:32:03,850
Кем он работает?
246
00:32:03,781 --> 00:32:06,853
Санитаром.
247
00:32:06,784 --> 00:32:09,856
Он очень гордится этим.
248
00:32:13,791 --> 00:32:16,863
Как ванная дорогой?
249
00:32:16,761 --> 00:32:19,833
Я почти закончил.
250
00:32:19,764 --> 00:32:22,836
Извини, я на минутку.
251
00:32:24,769 --> 00:32:27,841
Не торопись.
252
00:32:46,791 --> 00:32:48,839
Здесь так шумно.
253
00:32:48,793 --> 00:32:51,865
У нас всегда так.
254
00:32:51,762 --> 00:32:54,834
Хотя праздник Бон предвещает лето.
255
00:32:54,765 --> 00:32:57,837
Чувства покинули Хиросиму после
бомбардировки.
256
00:32:59,770 --> 00:33:01,818
Угощайся.
257
00:33:01,772 --> 00:33:03,820
Съем это, когда вернусь.
258
00:33:03,774 --> 00:33:06,846
Пойдешь играть в шахматы?
MediaInfo
Общее
Полное имя : J:\Children of Hiroshima.1952.dvdrip_[1.46]_[teko]\Children of Hiroshima.1952.dvdrip_[1.46].avi
Формат : AVI
Формат/Информация : Audio Video Interleave
Размер файла : 1,46 Гбайт
Продолжительность : 1 ч. 35 м.
Общий поток : 2180 Кбит/сек
Программа кодирования : VirtualDubMod 1.5.10.3 | www.virtualdub-fr.org || (build 2550/release)
Библиотека кодирования : VirtualDubMod build 2550/release
Видео
Идентификатор : 0
Формат : MPEG-4 Visual
Профиль формата : Advanced Simple@L5
Параметр BVOP формата : 1
Параметр QPel формата : Нет
Параметр GMC формата : Без точки перехода
Параметр матрицы формата : Выборочная
Идентификатор кодека : XVID
Идентификатор кодека/Подсказка : XviD
Продолжительность : 1 ч. 35 м.
Битрейт : 1947 Кбит/сек
Ширина : 656 пикселей
Высота : 480 пикселей
Соотношение сторон : 4:3
Частота кадров : 23,976 кадра/сек
Цветовое пространство : YUV
Субдискретизация насыщенности : 4:2:0
Битовая глубина : 8 бит
Тип развёртки : Прогрессивная
Метод сжатия : С потерями
Бит/(Пиксели*Кадры) : 0.258
Размер потока : 1,30 Гбайт (89%)
Библиотека кодирования : XviD 73
Аудио
Идентификатор : 1
Формат : AC-3
Формат/Информация : Audio Coding 3
Расширение режима : CM (complete main)
Параметр Endianness формата : Big
Идентификатор кодека : 2000
Продолжительность : 1 ч. 35 м.
Вид битрейта : Постоянный
Битрейт : 224 Кбит/сек
Каналы : 1 канал
Расположение каналов : Front: C
Частота : 48,0 КГц
Битовая глубина : 16 бит
Метод сжатия : С потерями
Размер потока : 153 Мбайт (10%)
Выравнивание : Разделение по промежуткам
Продолжительность промежутка : 42 мс. (1,00 видеокадр)
Время предзагрузки промежутка : 500 мс.
Скриншоты Релиз группы:
[url=http://***/forum/viewtopic.php?t=1677970] [/url]
--
Скачать

Скачать торрент! Дети Хиросимы / Gembaku no ko / Children of Hiroshima (Кането Синдо / Kaneto Shindo) [1952, Япония, драма, DVDRip] Sub Rus, Eng + original

Как скачивать? · Что такое торрент? · Рейтинг и ограничения

Сайт не распространяет и не хранит электронные версии произведений, а лишь предоставляет доступ к создаваемому пользователями каталогу ссылок на торрент-файлы, которые содержат только списки хеш-сумм

[Профиль] [ЛС]
Показать сообщения:    
Ответить на тему

Текущее время: Сегодня 21:13

Часовой пояс: GMT + 4



Вы не можете начинать темы
Вы не можете отвечать на сообщения
Вы не можете редактировать свои сообщения
Вы не можете удалять свои сообщения
Вы не можете голосовать в опросах
Вы не можете прикреплять файлы к сообщениям
Вы не можете скачивать файлы