Мэри Ком / Mari Kom (Омунг Кумар / Omung Kumar) [2014, Индия, Драма, биография, спорт, HDRip] VO (R.A.I.M.)

Ответить на тему
 
Автор Сообщение

user ®

Стаж: 12 лет

Сообщений: 15092

Пост Пост: #1 от 28-Окт-2014 11:30

[Цитировать]

Мэри Ком / Mari Kom
-Страна: Индия
Жанр: Драма, биография, спорт
Год выпуска: 2014
Продолжительность: 02:01:07--Язык: Хинди
Перевод: Одноголосый закадровый - RAIM
Cубтитры: Нет
Перевод и редакция: Honey&Haseena--Режиссер: Омунг Кумар / Omung Kumar-В ролях: Приянка Чопра, Захари Соффин, Даршан Кумар, Сунил Дхапа, Лин Лайшрам--Описание: В основу этого фильма легла реальная история легендарной пятикратной чемпионки мира по боксу -индианки Чунгнейджанг, известной миру, как Мэри Ком. Она выросла в деревне Кангатхеи, в Манипуре. Будучи родом из очень бедной семьи, она всю жизнь мечтала стать боксёром и зажечь своё имя. Ей пришлось пройти через тернистый путь к своей цели, но всё же ей удалось доказать всему миру, что она достойна титула «Великолепная Мэри»...
(c) Honey--Качество видео: HDRip (исх. BDRip 1080p)
Формат видео: AVI-Видео: 720x304 (2.37:1), 24 fps, XviD build 50 ~1327 kbps avg, 0.25 bit/pixel
Аудио: 48 kHz, AC3 Dolby Digital, 3/2 (L,C,R,l,r) + LFE ch, ~384 kbps--Сэмпл / Sample--Творческое озвучивание: RAIM (спасибо!)
По субтитрам (Honey&Haseena) (спасибо!)
Сведение звука: Вадик38 (спасибо!)
Риппер: soso4eg-- -
-
-Скриншот с названием:
-
Скриншоты:
-
MI
General
Complete name : C:\INDIYA\Meri.Kom.2014.HDRip.XviD-soso4eg.avi
Format : AVI
Format/Info : Audio Video Interleave
File size : 1.46 GiB
Duration : 2h 1mn
Overall bit rate : 1 721 Kbps
Movie name : Mary.Kom.2014.HDRip.XviD-soso4eg
Director : soso4eg
Writing application : VirtualDubMod 1.5.10.3 | www.virtualdub-fr.org || (build 2550/release)
Original source form/Name : Hindi
Copyright : специально для BitTorrent трекер *** (ex torrents.ru)
Comment : пер. RAIM по суб. Honey&Haseena
Video
ID : 0
Format : MPEG-4 Visual
Format profile : Advanced Simple@L5
Format settings, BVOP : 1
Format settings, QPel : No
Format settings, GMC : No warppoints
Format settings, Matrix : Default (H.263)
Codec ID : XVID
Codec ID/Hint : XviD
Duration : 2h 1mn
Bit rate : 1 328 Kbps
Width : 720 pixels
Height : 304 pixels
Display aspect ratio : 2.35:1
Frame rate : 24.000 fps
Color space : YUV
Chroma subsampling : 4:2:0
Bit depth : 8 bits
Scan type : Progressive
Compression mode : Lossy
Bits/(Pixel*Frame) : 0.253
Stream size : 1.12 GiB (77%)
Writing library : XviD 1.2.1 (UTC 2008-12-04)
Audio
ID : 1
Format : AC-3
Format/Info : Audio Coding 3
Mode extension : CM (complete main)
Format settings, Endianness : Big
Codec ID : 2000
Duration : 2h 1mn
Bit rate mode : Constant
Bit rate : 384 Kbps
Channel(s) : 6 channels
Channel positions : Front: L C R, Side: L R, LFE
Sampling rate : 48.0 KHz
Bit depth : 16 bits
Compression mode : Lossy
Stream size : 333 MiB (22%)
Alignment : Split accross interleaves
Interleave, duration : 42 ms (1.00 video frame)
Interleave, preload duration : 500 ms
Скачать

Скачать торрент! Мэри Ком / Mari Kom (Омунг Кумар / Omung Kumar) [2014, Индия, Драма, биография, спорт, HDRip] VO (R.A.I.M.)

Как скачивать? · Что такое торрент? · Рейтинг и ограничения

Сайт не распространяет и не хранит электронные версии произведений, а лишь предоставляет доступ к создаваемому пользователями каталогу ссылок на торрент-файлы, которые содержат только списки хеш-сумм

[Профиль] [ЛС]
Показать сообщения:    
Ответить на тему

Текущее время: Сегодня 06:44

Часовой пояс: GMT + 4



Вы не можете начинать темы
Вы не можете отвечать на сообщения
Вы не можете редактировать свои сообщения
Вы не можете удалять свои сообщения
Вы не можете голосовать в опросах
Вы не можете прикреплять файлы к сообщениям
Вы не можете скачивать файлы