3 дня на убийство / 3 Days To Kill (МакДжи / McG) [2014, США, Франция, боевик, триллер, BDRip-AVC] [Extended Cut] Dub + AVO (А. Гаврилов) + Sub Rus, Eng + Original Eng

Ответить на тему
 
Автор Сообщение

user ®

Стаж: 7 лет 7 месяцев

Сообщений: 20008

Пост Пост: #1 от 28-Окт-2014 11:30

[Цитировать]

3 дня на убийство / 3 Days To Kill /Extended Cut- Страна: США, Франция
Жанр: боевик, триллер
Год выпуска: 2014
Продолжительность: 02:02:19
Перевод: Профессиональный (дублированный) Blu-ray Rus + Sub (на расширенные сцены)
Перевод 2: Авторский (одноголосый закадровый) А. Гаврилов
Cубтитры: Rus, Eng
Оригинальная аудиодорожка: английский
Режиссер: МакДжи / McG
Продюсер: Люк Бессон / Luc Besson, Ади Хасак, Райан Кэвэна
Сценарий: Люк Бессон / Luc Besson, Ади Хасак
В ролях:
Кевин Костнер / Kevin Costner
Эмбер Хёрд, Хейли Стайнфелд, Конни Нильсен, Томас Лемаркус, Рихард Заммель, Марк Андреони, Бруно Риччи, Йонас Блоке, Эрик Эбони-ОписаниеВ секретной лаборатории ученые разработали препарат, который позволяет человеку справиться с любой неизлечимой болезнью. Руководство спецслужб предлагает принять это лекарство экс-агенту спецслужб Итану Раннеру, которому врачи объявили смертельный диагноз. Но он должен выполнить еще одно задание, которое, впрочем, может стоить ему жизни. Теперь вокруг Раннера начинают происходить странные вещи. Что это — галлюцинации, побочный эффект от таблеток или мир действительно полон ужаса и кошмара?-Сэмпл

IMDb: 6.20 (44 499)
Качество видео: BDRip-AVC [url=http://***/forum/viewtopic.php?t=4841079]BDRemux 1080p[/url]
Формат видео: MKV
Видео: AVC 2661 Kbps 1136 x 478 (2.377) 23.976 fps
Аудио: AC-3 384 Kbps 6 channels, 48.0 KHz Rus DUB
Аудио 2: AC-3 384 Kbps 6 channels, 48.0 KHz AVO А. Гаврилов
Аудио 3: AC-3 384 Kbps 6 channels, 48.0 KHz Eng
Формат субтитров: softsub (SRT)
MediaInfo | Log
Log
x264 [info]: frame I:2133 Avg QP:15.21 size: 76955
x264 [info]: frame P:42508 Avg QP:16.94 size: 28193
x264 [info]: frame B:131314 Avg QP:19.40 size: 8738
x264 [info]: consecutive B-frames: 3.7% 4.2% 10.3% 28.4% 17.0% 25.5% 4.3% 3.9% 0.8% 0.4% 0.2% 0.8% 0.4%
x264 [info]: mb I I16..4: 10.6% 70.8% 18.6%
x264 [info]: mb P I16..4: 1.5% 15.0% 2.1% P16..4: 26.1% 30.0% 12.4% 2.3% 0.2% skip:10.4%
x264 [info]: mb B I16..4: 0.2% 1.4% 0.2% B16..8: 32.0% 20.5% 4.0% direct: 5.3% skip:36.5% L0:41.4% L1:44.3% BI:14.2%
x264 [info]: 8x8 transform intra:78.3% inter:59.3%
x264 [info]: coded y,uvDC,uvAC intra: 84.9% 88.4% 74.5% inter: 22.3% 20.7% 7.5%
x264 [info]: i16 v,h,dc,p: 42% 10% 7% 41%
x264 [info]: i8 v,h,dc,ddl,ddr,vr,hd,vl,hu: 11% 8% 10% 9% 12% 13% 12% 12% 13%
x264 [info]: i4 v,h,dc,ddl,ddr,vr,hd,vl,hu: 14% 11% 8% 8% 13% 13% 12% 10% 11%
x264 [info]: i8c dc,h,v,p: 42% 21% 20% 17%
x264 [info]: Weighted P-Frames: Y:4.8% UV:3.4%
x264 [info]: ref P L0: 49.5% 11.5% 16.5% 6.0% 4.7% 3.1% 2.8% 1.4% 1.3% 1.0% 1.0% 0.9% 0.2% 0.0%
x264 [info]: ref B L0: 75.5% 11.2% 4.9% 2.6% 1.7% 1.4% 1.1% 0.7% 0.5% 0.3% 0.1%
x264 [info]: ref B L1: 93.5% 6.5%
x264 [info]: kb/s:2736.11
x264 [total]: encoded 175955 frames, 9.76 fps, 2736.11 kb/s, duration 5:00:28.02
Format : Matroska
Format version : Version 4 / Version 2
File size : 3.32 GiB
Duration : 2h 2mn
Overall bit rate : 3 890 Kbps
Encoded date : UTC 2014-10-27 19:38:52
Writing application : mkvmerge v6.7.0 ('Back to the Ground') 32bit built on Jan 8 2014 15:03:17
Writing library : libebml v1.3.0 + libmatroska v1.4.1
Video
ID : 1
Format : AVC
Format/Info : Advanced Video Codec
Format profile : High@L4.1
Format settings, CABAC : Yes
Format settings, ReFrames : 12 frames
Codec ID : V_MPEG4/ISO/AVC
Duration : 2h 2mn
Bit rate : 2 661 Kbps
Width : 1 136 pixels
Height : 478 pixels
Display aspect ratio : 2.40:1
Frame rate mode : Constant
Frame rate : 23.976 fps
Color space : YUV
Chroma subsampling : 4:2:0
Bit depth : 8 bits
Scan type : Progressive
Bits/(Pixel*Frame) : 0.204
Stream size : 2.27 GiB (68%)
Writing library : x264 core 142 r2453kMod ea0ca51
Encoding settings : cabac=1 / ref=12 / deblock=1:-2:-2 / analyse=0x3:0x133 / me=umh / subme=11 / psy=1 / fade_compensate=0.00 / psy_rd=1.00:0.05 / mixed_ref=1 / me_range=32 / chroma_me=1 / trellis=2 / 8x8dct=1 / cqm=0 / deadzone=21,11 / fast_pskip=0 / chroma_qp_offset=-3 / threads=12 / lookahead_threads=3 / sliced_threads=0 / nr=0 / decimate=1 / interlaced=0 / bluray_compat=0 / constrained_intra=0 / fgo=0 / bframes=12 / b_pyramid=2 / b_adapt=2 / b_bias=0 / direct=1 / weightb=1 / open_gop=0 / weightp=2 / keyint=250 / keyint_min=23 / scenecut=40 / intra_refresh=0 / rc_lookahead=60 / rc=crf / mbtree=0 / crf=17.6000 / qcomp=0.60 / qpmin=0 / qpmax=69 / qpstep=4 / vbv_maxrate=25000 / vbv_bufsize=50000 / crf_max=0.0 / nal_hrd=none / filler=0 / ip_ratio=1.40 / pb_ratio=1.30 / aq=3:0.90
Language : English
Default : Yes
Forced : No
Audio #1
ID : 2
Format : AC-3
Format/Info : Audio Coding 3
Mode extension : CM (complete main)
Format settings, Endianness : Big
Codec ID : A_AC3
Duration : 2h 2mn
Bit rate mode : Constant
Bit rate : 384 Kbps
Channel(s) : 6 channels
Channel positions : Front: L C R, Side: L R, LFE
Sampling rate : 48.0 KHz
Bit depth : 16 bits
Compression mode : Lossy
Stream size : 336 MiB (10%)
Title : DUB
Language : Russian
Default : Yes
Forced : No
Audio #2
ID : 3
Format : AC-3
Format/Info : Audio Coding 3
Mode extension : CM (complete main)
Format settings, Endianness : Big
Codec ID : A_AC3
Duration : 2h 2mn
Bit rate mode : Constant
Bit rate : 384 Kbps
Channel(s) : 6 channels
Channel positions : Front: L C R, Side: L R, LFE
Sampling rate : 48.0 KHz
Bit depth : 16 bits
Compression mode : Lossy
Stream size : 336 MiB (10%)
Title : AVO (A. Gavrilov)
Language : Russian
Default : No
Forced : No
Audio #3
ID : 4
Format : AC-3
Format/Info : Audio Coding 3
Mode extension : CM (complete main)
Format settings, Endianness : Big
Codec ID : A_AC3
Duration : 2h 2mn
Bit rate mode : Constant
Bit rate : 384 Kbps
Channel(s) : 6 channels
Channel positions : Front: L C R, Side: L R, LFE
Sampling rate : 48.0 KHz
Bit depth : 16 bits
Compression mode : Lossy
Stream size : 336 MiB (10%)
Title : Original
Language : English
Default : No
Forced : No
Text #1
ID : 5
Format : UTF-8
Codec ID : S_TEXT/UTF8
Codec ID/Info : UTF-8 Plain Text
Title : Forced
Language : Russian
Default : Yes
Forced : No
Text #2
ID : 6
Format : UTF-8
Codec ID : S_TEXT/UTF8
Codec ID/Info : UTF-8 Plain Text
Title : FULL
Language : Russian
Default : No
Forced : No
Text #3
ID : 7
Format : UTF-8
Codec ID : S_TEXT/UTF8
Codec ID/Info : UTF-8 Plain Text
Title : SDH
Language : English
Default : No
Forced : No
Menu
00:00:00.000 : en:Chapter 1
00:03:35.131 : en:Chapter 2
00:06:58.543 : en:Chapter 3
00:10:56.572 : en:Chapter 4
00:16:00.709 : en:Chapter 5
00:20:51.708 : en:Chapter 6
00:25:05.962 : en:Chapter 7
00:29:24.345 : en:Chapter 8
00:34:20.391 : en:Chapter 9
00:37:46.806 : en:Chapter 10
00:40:27.299 : en:Chapter 11
00:44:05.225 : en:Chapter 12
00:49:24.794 : en:Chapter 13
00:53:16.443 : en:Chapter 14
00:57:40.873 : en:Chapter 15
01:08:28.395 : en:Chapter 16
01:13:37.621 : en:Chapter 17
01:19:51.828 : en:Chapter 18
01:25:59.070 : en:Chapter 19
01:32:28.167 : en:Chapter 20
01:39:10.569 : en:Chapter 21
01:42:49.412 : en:Chapter 22
01:51:49.452 : en:Chapter 23
01:54:55.596 : en:Chapter 24
02:02:17.538 : en:Chapter 25
Скриншоты | Rip vs Source
Скачать

Скачать торрент!

Как скачивать? · Что такое торрент? · Рейтинг и ограничения

Сайт не распространяет и не хранит электронные версии произведений, а лишь предоставляет доступ к создаваемому пользователями каталогу ссылок на торрент-файлы, которые содержат только списки хеш-сумм

[Профиль] [ЛС]
Показать сообщения:    
Ответить на тему

Текущее время: Сегодня 05:05

Часовой пояс: GMT + 4



Вы не можете начинать темы
Вы не можете отвечать на сообщения
Вы не можете редактировать свои сообщения
Вы не можете удалять свои сообщения
Вы не можете голосовать в опросах
Вы не можете прикреплять файлы к сообщениям
Вы не можете скачивать файлы