Один день / Okkadunnadu (Чандрашекхар Йелети / Chandrasekhar Yeleti) [2007, Индия, Боевик, триллер, DVDRip] MVO (Red Media) + Sub Rus (на песни)

Ответить на тему
 
Автор Сообщение

user ®

Стаж: 12 лет

Сообщений: 15092

Пост Пост: #1 от 27-Окт-2014 20:20

[Цитировать]

Один день / Okkadunnadu
Страна: Индия
Жанр: Боевик, триллер
Год выпуска: 2007
Продолжительность: 02:10:50
Перевод: Профессиональный (многоголосый закадровый) Red Media
Cубтитры: русские (внешние, только на песни)
Режиссер: Чандрашекхар Йелети / Chandrasekhar Yeleti
В ролях: Гопичанд, Неха Джулка, Махеш Манджрека, Рахул Дев, Нассер, Суман, Таникелла Бхарани, Брахманандам
Описание: Гаутами занимается риэлторским бизнесом в Мумбае. Её клиент Киран, продает свой гостевой дом. Он приезжает к ней, чтобы поторопить с продажей, так как ему срочно нужны деньги. В это время главарь банды Сону Бхай нуждается в пересадке сердца. У него очень редкая группа крови. Выясняется, что в качестве донора идеально подходит только Киран…
Доп. информация: Исходник [url=http://***/forum/viewtopic.php?t=3972765]DVD-9[/url] (СПАСИБО! Gahan Dave)
Сэмпл: http://multi-up.com/1008922
Качество видео: DVDRip
Формат видео: AVI
Видео: XviD build 50, 672x288 (2.33:1), 23.976 fps, 1460 kbps avg
Аудио: MPEG Layer 3, 48 kHz, 2/0 (L,R) ch, 128.00 kbps avg
MediaInfo
General
Complete name : D:\Odin.den.2007.DVDRip-Dego\Odin.den.2007.DVDRip-Dego.avi
Format : AVI
Format/Info : Audio Video Interleave
File size : 1.46 GiB
Duration : 2h 10mn
Overall bit rate : 1 598 Kbps
Writing application : VirtualDubMod 1.5.10.2 (build 2540/release)
Writing library : VirtualDubMod build 2540/release
Video
ID : 0
Format : MPEG-4 Visual
Format profile : AdvancedSimple@L5
Format settings, BVOP : Yes
Format settings, QPel : No
Format settings, GMC : No warppoints
Format settings, Matrix : Custom
Codec ID : XVID
Codec ID/Hint : XviD
Duration : 2h 10mn
Bit rate : 1 461 Kbps
Width : 672 pixels
Height : 288 pixels
Display aspect ratio : 2.35
Frame rate : 23.976 fps
Resolution : 24 bits
Colorimetry : 4:2:0
Scan type : Progressive
Bits/(Pixel*Frame) : 0.315
Stream size : 1.34 GiB (91%)
Writing library : XviD 1.2.1 (UTC 2008-12-04)
Audio
ID : 1
Format : MPEG Audio
Format version : Version 1
Format profile : Layer 3
Codec ID : 55
Codec ID/Hint : MP3
Duration : 2h 10mn
Bit rate mode : Constant
Bit rate : 128 Kbps
Channel(s) : 2 channels
Sampling rate : 48.0 KHz
Resolution : 16 bits
Stream size : 120 MiB (8%)
Alignment : Aligned on interleaves
Interleave, duration : 42 ms (1.00 video frame)
Interleave, preload duration : 504 ms
Writing library : LAME3.98r
Encoding settings : -m s -V 4 -q 2 -lowpass 17 -b 128
Скриншоты
Скачать

Скачать торрент! Один день / Okkadunnadu (Чандрашекхар Йелети / Chandrasekhar Yeleti) [2007, Индия, Боевик, триллер, DVDRip] MVO (Red Media) + Sub Rus (на песни)

Как скачивать? · Что такое торрент? · Рейтинг и ограничения

Сайт не распространяет и не хранит электронные версии произведений, а лишь предоставляет доступ к создаваемому пользователями каталогу ссылок на торрент-файлы, которые содержат только списки хеш-сумм

[Профиль] [ЛС]
Показать сообщения:    
Ответить на тему

Текущее время: Сегодня 14:54

Часовой пояс: GMT + 4



Вы не можете начинать темы
Вы не можете отвечать на сообщения
Вы не можете редактировать свои сообщения
Вы не можете удалять свои сообщения
Вы не можете голосовать в опросах
Вы не можете прикреплять файлы к сообщениям
Вы не можете скачивать файлы