В смертельной опасности / On Deadly Ground (Стивен Сигал / Steven Seagal) [1994, США, боевик, триллер, WEB-DL 720p] 2x Dub (Мост-Видео, Варус-Видео) + 3x MVO (ОРТ, НТВ, Россия) + 2x AVO (Гаврилов, Горчаков) + 2xUkr + Original Eng + Sub Rus, Eng

Ответить на тему
 
Автор Сообщение

user ®

Стаж: 7 лет 7 месяцев

Сообщений: 20008

Пост Пост: #1 от 27-Окт-2014 20:20

[Цитировать]

В смертельной опасности / On Deadly Ground- Год выпуска: 1994
Страна: США
Жанр: боевик, триллер, приключения
Продолжительность: 01:41:00
Перевод: Профессиональный (полное дублирование) Мост-Видео
+ Профессиональный (полное дублирование) Варус-Видео
+ Авторский одноголосый А.Гаврилов
+ Авторский одноголосый В.Горчаков
+ Профессиональный (многоголосый, закадровый) ОРТ
+ Профессиональный (многоголосый, закадровый) НТВ
+ Профессиональный (многоголосый, закадровый) Россия
Оригинальная звуковая дорожка: English
Субтитры: Russian, English-Режиссер: Стивен Сигал / Steven Seagal
В ролях: Стивен Сигал, Майкл Кейн, Джоан Чэнь, Джон К. МакГинли, Р. Ли Эрми, Шэри Шаттак, Билли Боб Торнтон, Ричард Хэмилтон, Чиф Ирвин Бринк, Апангулук Чарли Кайрайуак
О фильме: Форрест Тафт – это человек, который всегда выбирает только одну сторону. Тафт – специалист по борьбе с пожарами нефтяных скважин, но ему приходится вступать в еще более горячую битву, когда он сталкивается с Майклом Дженнингсом – хозяином нефтяной компании, на одной из буровых которой произошла авария, и нефть выливается в океан.
Но нажива для таких людей превыше всего. И тогда Тафт дает им понять: если они причинят вред земле, которую он любит, они – в смертельной опасности.
Релиз: by Прагматик
Качество: WEB-DL 720p
Формат: MKV
Видео: 1280x534 at 23.976 fps, MPEG-4 AVC, ~4070 kbps avg
Аудио #01: Russian: 48 kHz, AC3, 3/2 (L,C,R,l,r) + LFE ch, ~384.00 kbps avg |Дубляж, Мост-Видео|
Аудио #02: Russian: 48 kHz, AC3, 2/0 (L,R) ch, ~192.00 kbps avg |Дубляж, Варус-Видео|
Аудио #03: Russian: 48 kHz, AC3, 3/2 (L,C,R,l,r) + LFE ch, ~384.00 kbps avg |Одноголосый закадровый, А.Гаврилов|
Аудио #04: Russian: 48 kHz, AC3, 2/0 (L,R) ch, ~192.00 kbps avg |Одноголосый закадровый, В.Горчаков|
Аудио #05: Russian: 48 kHz, AC3, 2/0 (L,R) ch, ~192.00 kbps avg |Многоголосый закадровый, ОРТ|
Аудио #06: Russian: 48 kHz, AC3, 2/0 (L,R) ch, ~192.00 kbps avg |Многоголосый закадровый, НТВ|
Аудио #07: Russian: 48 kHz, AC3, 2/0 (L,R) ch, ~192.00 kbps avg |Многоголосый закадровый, Россия|
Аудио #08: Ukrainian: 48 kHz, AC3, 2/0 (L,R) ch, ~192.00 kbps avg |Многоголосый закадровый, ICTV|
Аудио #09: Ukrainian: 48 kHz, AC3, 2/0 (L,R) ch, ~192.00 kbps avg |Многоголосый закадровый, Новый канал|
Аудио #10: English: 48 kHz, AC3, 3/2 (L,C,R,l,r) + LFE ch, ~384.00 kbps avg
Семпл-

Скриншоты
-
mInfo
Формат : Matroska
Версия формата : Version 4 / Version 2
Размер файла : 4,76 Гбайт
Продолжительность : 1 ч. 41 м.
Общий поток : 6699 Кбит/сек
Дата кодирования : UTC 2014-10-25 17:59:00
Программа кодирования : mkvmerge v6.2.0 ('Promised Land') built on Apr 28 2013 12:22:01
Библиотека кодирования : libebml v1.3.0 + libmatroska v1.4.0
Видео
Идентификатор : 1
Формат : AVC
Формат/Информация : Advanced Video Codec
Профиль формата : Main@L3.1
Параметр CABAC формата : Нет
Параметр ReFrames формата : 2 кадра
Параметр GOP формата : N=1
Идентификатор кодека : V_MPEG4/ISO/AVC
Продолжительность : 1 ч. 41 м.
Битрейт : 4070 Кбит/сек
Ширина : 1280 пикселей
Высота : 534 пикселя
Соотношение сторон : 2,40:1
Режим частоты кадров : Постоянный
Частота кадров : 23,976 кадра/сек
Цветовое пространство : YUV
Субдискретизация насыщенности : 4:2:0
Битовая глубина : 8 бит
Тип развёртки : Прогрессивная
Бит/(Пиксели*Кадры) : 0.248
Размер потока : 2,89 Гбайт (61%)
Язык : English
Default : Да
Forced : Нет
Основные цвета : BT.709
Характеристики трансфера : BT.709
Коэффициенты матрицы : BT.709
Аудио #1
Идентификатор : 2
Формат : AC-3
Формат/Информация : Audio Coding 3
Расширение режима : CM (complete main)
Параметр Endianness формата : Big
Идентификатор кодека : A_AC3
Продолжительность : 1 ч. 41 м.
Вид битрейта : Постоянный
Битрейт : 384 Кбит/сек
Каналы : 6 каналов
Расположение каналов : Front: L C R, Side: L R, LFE
Частота : 48,0 КГц
Битовая глубина : 16 бит
Метод сжатия : С потерями
Размер потока : 279 Мбайт (6%)
Заголовок : AC3 6 ch 384 kbps Dub Мост-Видео
Язык : Russian
Default : Да
Forced : Нет
Аудио #2
Идентификатор : 3
Формат : AC-3
Формат/Информация : Audio Coding 3
Расширение режима : CM (complete main)
Параметр Endianness формата : Big
Идентификатор кодека : A_AC3
Продолжительность : 1 ч. 41 м.
Вид битрейта : Постоянный
Битрейт : 192 Кбит/сек
Каналы : 2 канала
Расположение каналов : Front: L R
Частота : 48,0 КГц
Битовая глубина : 16 бит
Метод сжатия : С потерями
Размер потока : 140 Мбайт (3%)
Заголовок : AC3 2 ch 192 kbps Dub Варус-Видео
Язык : Russian
Default : Нет
Forced : Нет
Аудио #3
Идентификатор : 4
Формат : AC-3
Формат/Информация : Audio Coding 3
Расширение режима : CM (complete main)
Параметр Endianness формата : Big
Идентификатор кодека : A_AC3
Продолжительность : 1 ч. 41 м.
Вид битрейта : Постоянный
Битрейт : 384 Кбит/сек
Каналы : 6 каналов
Расположение каналов : Front: L C R, Side: L R, LFE
Частота : 48,0 КГц
Битовая глубина : 16 бит
Метод сжатия : С потерями
Размер потока : 279 Мбайт (6%)
Заголовок : AC3 6 ch 384 kbps Андрей Гаврилов
Язык : Russian
Default : Нет
Forced : Нет
Аудио #4
Идентификатор : 5
Формат : AC-3
Формат/Информация : Audio Coding 3
Расширение режима : CM (complete main)
Параметр Endianness формата : Big
Идентификатор кодека : A_AC3
Продолжительность : 1 ч. 41 м.
Вид битрейта : Постоянный
Битрейт : 192 Кбит/сек
Каналы : 2 канала
Расположение каналов : Front: L R
Частота : 48,0 КГц
Битовая глубина : 16 бит
Метод сжатия : С потерями
Размер потока : 140 Мбайт (3%)
Заголовок : AC3 2 ch 192 kbps Василий Горчаков
Язык : Russian
Default : Нет
Forced : Нет
Аудио #5
Идентификатор : 6
Формат : AC-3
Формат/Информация : Audio Coding 3
Расширение режима : CM (complete main)
Параметр Endianness формата : Big
Идентификатор кодека : A_AC3
Продолжительность : 1 ч. 41 м.
Вид битрейта : Постоянный
Битрейт : 192 Кбит/сек
Каналы : 2 канала
Расположение каналов : Front: L R
Частота : 48,0 КГц
Битовая глубина : 16 бит
Метод сжатия : С потерями
Размер потока : 140 Мбайт (3%)
Заголовок : AC3 2 ch 192 kbps MVO ОРТ
Язык : Russian
Default : Нет
Forced : Нет
Аудио #6
Идентификатор : 7
Формат : AC-3
Формат/Информация : Audio Coding 3
Расширение режима : CM (complete main)
Параметр Endianness формата : Big
Идентификатор кодека : A_AC3
Продолжительность : 1 ч. 41 м.
Вид битрейта : Постоянный
Битрейт : 192 Кбит/сек
Каналы : 2 канала
Расположение каналов : Front: L R
Частота : 48,0 КГц
Битовая глубина : 16 бит
Метод сжатия : С потерями
Размер потока : 140 Мбайт (3%)
Заголовок : AC3 2 ch 192 kbps MVO НТВ
Язык : Russian
Default : Нет
Forced : Нет
Аудио #7
Идентификатор : 8
Формат : AC-3
Формат/Информация : Audio Coding 3
Расширение режима : CM (complete main)
Параметр Endianness формата : Big
Идентификатор кодека : A_AC3
Продолжительность : 1 ч. 41 м.
Вид битрейта : Постоянный
Битрейт : 192 Кбит/сек
Каналы : 2 канала
Расположение каналов : Front: L R
Частота : 48,0 КГц
Битовая глубина : 16 бит
Метод сжатия : С потерями
Размер потока : 140 Мбайт (3%)
Заголовок : AC3 2 ch 192 kbps MVO тк. Россия
Язык : Russian
Default : Нет
Forced : Нет
Аудио #8
Идентификатор : 9
Формат : AC-3
Формат/Информация : Audio Coding 3
Расширение режима : CM (complete main)
Параметр Endianness формата : Big
Идентификатор кодека : A_AC3
Продолжительность : 1 ч. 41 м.
Вид битрейта : Постоянный
Битрейт : 192 Кбит/сек
Каналы : 2 канала
Расположение каналов : Front: L R
Частота : 48,0 КГц
Битовая глубина : 16 бит
Метод сжатия : С потерями
Размер потока : 140 Мбайт (3%)
Заголовок : AC3 2 ch 192 kbps MVO тк.ICTV
Язык : Ukrainian
Default : Нет
Forced : Нет
Аудио #9
Идентификатор : 10
Формат : AC-3
Формат/Информация : Audio Coding 3
Расширение режима : CM (complete main)
Параметр Endianness формата : Big
Идентификатор кодека : A_AC3
Продолжительность : 1 ч. 41 м.
Вид битрейта : Постоянный
Битрейт : 192 Кбит/сек
Каналы : 2 канала
Расположение каналов : Front: L R
Частота : 48,0 КГц
Битовая глубина : 16 бит
Метод сжатия : С потерями
Размер потока : 140 Мбайт (3%)
Заголовок : AC3 2 ch 192 kbps MVO Новый канал
Язык : Ukrainian
Default : Нет
Forced : Нет
Аудио #10
Идентификатор : 11
Формат : AC-3
Формат/Информация : Audio Coding 3
Расширение режима : CM (complete main)
Параметр Endianness формата : Big
Идентификатор кодека : A_AC3
Продолжительность : 1 ч. 41 м.
Вид битрейта : Постоянный
Битрейт : 384 Кбит/сек
Каналы : 6 каналов
Расположение каналов : Front: L C R, Side: L R, LFE
Частота : 48,0 КГц
Битовая глубина : 16 бит
Метод сжатия : С потерями
Размер потока : 279 Мбайт (6%)
Заголовок : AC3 6 ch 384 kbps
Язык : English
Default : Нет
Forced : Нет
Текст #1
Идентификатор : 12
Формат : UTF-8
Идентификатор кодека : S_TEXT/UTF8
Идентификатор кодека/Информация : UTF-8 Plain Text
Язык : Russian
Default : Нет
Forced : Нет
Текст #2
Идентификатор : 13
Формат : UTF-8
Идентификатор кодека : S_TEXT/UTF8
Идентификатор кодека/Информация : UTF-8 Plain Text
Язык : English
Default : Нет
Forced : Нет
Меню
00:00:00.000 : en:Wilderness Credits
00:02:21.000 : en:Blazing Disaster
00:07:18.000 : en:Finding Fault
00:08:19.000 : en:Abby's Rough Crowd
00:13:34.000 : en:Playing W/cupcake
00:17:24.000 : en:Aegis Oil Cares
00:19:35.000 : en:Rid Of Problems
00:21:52.000 : en:Unauthorized Access
00:24:41.000 : en:Last Of H. Palmer
00:29:08.000 : en:Oil Spill
00:31:55.000 : en:A Trap For Forrest
00:34:19.000 : en:Rescued
00:36:16.000 : en:Framed
00:37:23.000 : en:What Bear Would Say
00:42:34.000 : en:The Spirit Within
00:46:20.000 : en:The Chosen One
00:48:58.000 : en:Pulls The Trigger
00:51:20.000 : en:To Spirit Warrior
00:54:23.000 : en:Targets At Hugh's
00:58:13.000 : en:Outside Help
01:00:15.000 : en:What Really Matters
01:03:29.000 : en:Bait For Hunters
01:08:14.000 : en:Horseback Pursuit
01:12:51.000 : en:Inside Aegis One
01:17:12.000 : en:Reach And Touch
01:19:12.000 : en:A Professional
01:21:15.000 : en:Abandon Ship
01:23:02.000 : en:Target: The Rig
01:25:35.000 : en:His Aim Backfires
01:26:24.000 : en:Hand-to-hand Havoc
01:28:24.000 : en:Jennings Takes Fall
01:30:12.000 : en:Inferno
01:32:25.000 : en:To Do What's Right
01:36:42.000 : en:End Credits

-
Цитата:

* Сохранены оригинальные чаптеры.
* Также картина известна под серийным названием "Нико 6".
* За исходники дорог спасибо: ОРТ - Fikaloid, НТВ (с кассеты, со вставками Россия) - спасибо small_pipi и Linger babe, Россия-РЕНТВ (со вставками НТВ) - спасибо Lorenzo94 и Linger babe
* Дорога Визгунова не включена по причине сверхужасного качества.
* Оригинальная дорога AAC заменена на полноценную 5.1 с DVD-R1.
Скачать

Скачать торрент!

Как скачивать? · Что такое торрент? · Рейтинг и ограничения

Сайт не распространяет и не хранит электронные версии произведений, а лишь предоставляет доступ к создаваемому пользователями каталогу ссылок на торрент-файлы, которые содержат только списки хеш-сумм

[Профиль] [ЛС]
Показать сообщения:    
Ответить на тему

Текущее время: Сегодня 11:54

Часовой пояс: GMT + 4



Вы не можете начинать темы
Вы не можете отвечать на сообщения
Вы не можете редактировать свои сообщения
Вы не можете удалять свои сообщения
Вы не можете голосовать в опросах
Вы не можете прикреплять файлы к сообщениям
Вы не можете скачивать файлы