Один день / Okkadunnadu (Чандрашекхар Йелети / Chandrasekhar Yeleti) [2007, Индия, Боевик, триллер, DVDRip] MVO (Red Media)

Ответить на тему
 
Автор Сообщение

user ®

Стаж: 12 лет

Сообщений: 15125

Пост Пост: #1 от 27-Окт-2014 17:10

[Цитировать]

Один день / Okkadunnadu
Страна: Индия
Жанр: Боевик, триллер
Год выпуска: 2007
Продолжительность: 02:10:50
Перевод: Профессиональный (многоголосый закадровый) Red Media
Cубтитры: нет
Режиссер: Чандрашекхар Йелети / Chandrasekhar Yeleti
В ролях: Гопичанд, Неха Джулка, Махеш Манджрека, Рахул Дев, Нассер, Суман, Таникелла Бхарани, Брахманандам
Описание: Гаутами занимается риэлторским бизнесом в Мумбае. Её клиент Киран, продает свой гостевой дом. Он приезжает к ней, чтобы поторопить с продажей, так как ему срочно нужны деньги. В это время главарь банды Сону Бхай нуждается в пересадке сердца. У него очень редкая группа крови. Выясняется, что в качестве донора идеально подходит только Киран…
Доп. информация: Исходник [url=http://***/forum/viewtopic.php?t=3972765]DVD-9[/url] (СПАСИБО! Gahan Dave)
Сэмпл: http://multi-up.com/1008917
Качество видео: DVDRip
Формат видео: AVI
Видео: XviD build 50, 720x304 (2.37:1), 23.976 fps, 1790 kbps avg
Аудио: AC3 Dolby Digital, 48 kHz, 3/2 (L,C,R,l,r) + LFE ch, 448 kbps
MediaInfo
General
Complete name : D:\Odin.den.2007.XviD.DVDRip-Dego.avi
Format : AVI
Format/Info : Audio Video Interleave
Format profile : OpenDML
File size : 2.05 GiB
Duration : 2h 10mn
Overall bit rate : 2 245 Kbps
Writing application : VirtualDubMod 1.5.10.2 (build 2540/release)
Writing library : VirtualDubMod build 2540/release
Video
ID : 0
Format : MPEG-4 Visual
Format profile : AdvancedSimple@L5
Format settings, BVOP : Yes
Format settings, QPel : No
Format settings, GMC : No warppoints
Format settings, Matrix : Custom
Codec ID : XVID
Codec ID/Hint : XviD
Duration : 2h 10mn
Bit rate : 1 785 Kbps
Width : 720 pixels
Height : 304 pixels
Display aspect ratio : 2.35
Frame rate : 23.976 fps
Resolution : 24 bits
Colorimetry : 4:2:0
Scan type : Progressive
Bits/(Pixel*Frame) : 0.340
Stream size : 1.63 GiB (79%)
Writing library : XviD 1.2.1 (UTC 2008-12-04)
Audio
ID : 1
Format : AC-3
Format/Info : Audio Coding 3
Codec ID : 2000
Duration : 2h 10mn
Bit rate mode : Constant
Bit rate : 448 Kbps
Channel(s) : 6 channels
Channel positions : Front: L C R, Surround: L R, LFE
Sampling rate : 48.0 KHz
Stream size : 419 MiB (20%)
Alignment : Split accross interleaves
Interleave, duration : 42 ms (1.00 video frame)
Interleave, preload duration : 500 ms
Скриншоты
Скачать

Скачать торрент! Один день / Okkadunnadu (Чандрашекхар Йелети / Chandrasekhar Yeleti) [2007, Индия, Боевик, триллер, DVDRip] MVO (Red Media)

Как скачивать? · Что такое торрент? · Рейтинг и ограничения

Сайт не распространяет и не хранит электронные версии произведений, а лишь предоставляет доступ к создаваемому пользователями каталогу ссылок на торрент-файлы, которые содержат только списки хеш-сумм

[Профиль] [ЛС]
Показать сообщения:    
Ответить на тему

Текущее время: Сегодня 12:49

Часовой пояс: GMT + 4



Вы не можете начинать темы
Вы не можете отвечать на сообщения
Вы не можете редактировать свои сообщения
Вы не можете удалять свои сообщения
Вы не можете голосовать в опросах
Вы не можете прикреплять файлы к сообщениям
Вы не можете скачивать файлы