Непобедимый (Олег Погодин) [2008, Боевик, BDRip]

Ответить на тему
 
Автор Сообщение

user ®

Стаж: 7 лет 7 месяцев

Сообщений: 20008

Пост Пост: #1 от 27-Окт-2014 17:10

[Цитировать]


Непобедимый
Страна: Россия
Жанр: Боевик
Год выпуска: 2008
Продолжительность: 01:46:40
Режиссёр: Олег Погодин
В ролях: Владимир Епифанцев, Сергей Астахов, Ольга Фадеева, Юрий Соломин, Владимир Стеклов, Олег Вавилов, Сергей Векслер, Владимир Турчинский, Тагир Рахимов, Дмитрий Добужинский
Описание: Егор Кремнёв — специальный агент российской разведки. В последнее время его преследуют неудачи: провал боевой операции в Колумбии, где Кремнёв руководил группой захвата, унёс жизни всех его товарищей. Кремнёва обвиняют в этой трагедии. Его лишают командирских полномочий. Теперь он — рядовой агент наблюдения.
Но похоже на этом его беды не закончились. Во время последнего задания, которое обещало быть простым и безопасным, колумбийская трагедия повторилась — погибли все соратники Кремнёва. А человек, которого должны были захватить, оказался секретарём беглого олигарха Соркина — Михаилом Шерингом, давно находившимся в розыске. У Шеринга, по слухам, есть секретные бумаги, за которыми охотится не только российская разведка, но и могущественный преступный синдикат Запада. Теперь Кремнёву предстоит сложная задача — доставить Шеринга на родину.
Чтобы реабилитроваться за прошлые провалы и вернуть себе доброе имя, Кремнёв намерен осуществить доставку Шеринга в одиночку, не прибегая к помощи коллег-разведчиков. Тем более что вокруг — сплошные предательства, заговоры, засады и ловушки. Но самая главная ловушка Кремнёва это объект доставки — Шеринг. От влияния своего попутчика Кремневу так просто не избавиться. Это смертельно опасное путешествие изменит обоих: и побеждённого Шеринга, и непобедимого Кремнёва.

Сэмпл: http://multi-up.com/1008902
Качество видео: BDRip
Формат видео: AVI
Видео: Xvid 704x304 23.976fps 1562kbps [V: mpeg4 advanced simple profile, yuv420p, 704x304, 1562 kb/s,]
Аудио: Dolby AC3 48000Hz 6ch 384kbps [A: ac3, 48000 Hz, 5.1, 384 kb/s]
MediaInfo
General
Complete name : C:\Nepobedimiy.2008.RUS.BDRip.XviD.AC3.-Shevon.avi
Format : AVI
Format/Info : Audio Video Interleave
File size : 1.46 GiB
Duration : 1h 46mn
Overall bit rate : 1 956 Kbps
Movie name : Непобедимый (2008)
Director : Shevon (Blu-Ray Disk)
Writing application : VirtualDubMod 1.5.10.2 (build 2540/release)
Comment : 07.06.2010
Video
ID : 0
Format : MPEG-4 Visual
Format profile : Advanced Simple@L5
Format settings, BVOP : 1
Format settings, QPel : No
Format settings, GMC : No warppoints
Format settings, Matrix : Custom
Codec ID : XVID
Codec ID/Hint : XviD
Duration : 1h 46mn
Bit rate : 1 562 Kbps
Width : 704 pixels
Height : 304 pixels
Display aspect ratio : 2.35:1
Frame rate : 23.976 fps
Color space : YUV
Chroma subsampling : 4:2:0
Bit depth : 8 bits
Scan type : Progressive
Compression mode : Lossy
Bits/(Pixel*Frame) : 0.304
Stream size : 1.16 GiB (80%)
Writing library : XviD 1.2.1 (UTC 2008-12-04)
Audio
ID : 1
Format : AC-3
Format/Info : Audio Coding 3
Mode extension : CM (complete main)
Format settings, Endianness : Big
Codec ID : 2000
Duration : 1h 46mn
Bit rate mode : Constant
Bit rate : 384 Kbps
Channel(s) : 6 channels
Channel positions : Front: L C R, Side: L R, LFE
Sampling rate : 48.0 KHz
Bit depth : 16 bits
Compression mode : Lossy
Stream size : 293 MiB (20%)
Alignment : Split accross interleaves
Interleave, duration : 42 ms (1.00 video frame)
Interleave, preload duration : 500 ms
Скриншоты Доп.Инфо.
Источник : (источник: Blu-ray Disc), Релиз от: Shevon
Скачать

Скачать торрент!

Как скачивать? · Что такое торрент? · Рейтинг и ограничения

Сайт не распространяет и не хранит электронные версии произведений, а лишь предоставляет доступ к создаваемому пользователями каталогу ссылок на торрент-файлы, которые содержат только списки хеш-сумм

[Профиль] [ЛС]
Показать сообщения:    
Ответить на тему

Текущее время: Сегодня 00:23

Часовой пояс: GMT + 4



Вы не можете начинать темы
Вы не можете отвечать на сообщения
Вы не можете редактировать свои сообщения
Вы не можете удалять свои сообщения
Вы не можете голосовать в опросах
Вы не можете прикреплять файлы к сообщениям
Вы не можете скачивать файлы