Экспресс миллионеров / Шанхайский экспресс / Shanghai Express / Millionaires Express / Foo gwai lit che (Саммо Хунг Кам-Бо / Sammo Hung Kam-Bo) [1986, Гонконг, боевик, комедия, DVDRip] [German Cut] DVO (Рен-ТВ) + 3x AVO (Дохалов, Кашкин, Кузнецов)

Ответить на тему
 
Автор Сообщение

user ®

Стаж: 13 лет

Сообщений: 15071

Пост Пост: #1 от 26-Окт-2014 23:40

[Цитировать]

Экспресс миллионеров / Шанхайский экспресс / Shanghai Express / Millionaires Express / Foo gwai lit che / German Cut
Страна: Гонконг
Жанр: боевик, комедия, вестерн
Год выпуска: 1986
Продолжительность: 01:22:03
-
Перевод 1: Профессиональный (двухголосый закадровый) Рен-ТВ
Перевод 2: Авторский (одноголосый закадровый) Вартан Дохалов
Перевод 3: Авторский (одноголосый закадровый) Александр Кашкин-Первомайский
Перевод 4: Авторский (одноголосый закадровый) Сергей Кузнецов
Cубтитры: нет
-
Режиссер: Саммо Хунг Кам-Бо / Sammo Hung Kam-Bo
В ролях: Саммо Хунг Кам-Бо, Юэнь Бяо, Синтия Ротрок, Ричард Нортон, Ясуаки Курата, Розамунд Кван, Кенни Би, Ланг Чан, Оливия Чэн, Чин Кар Лок, Эмили Чу, Фэт Чунг
-
Описание: Конец 30-х годов. Обаятельный авантюрист Чин (Саммо Хунг) после увлекательных приключений в России возвращается в родную деревню на китайской границе. За время его отсутствия дома многое изменилось. Местный начальник полиции (Эрик Тсанг) со своими подчиненными ограбили банк и сбежали. Его место занял бывший начальник пожарной охраны Тсао (Юэнь Биао). В окрестностях городка появляется конная банда, в рядах которой два американских ковбоя (Ричард Нортон и Синтия Ротрок), собирающиеся напасть на экспресс из Шанхая с целью завладеть некой картой древних сокровищ. Кстати, Чин возвращается домой не один, а с толпой молодых и симпатичных девушек. Он открывает в деревне что-то вроде светского салона. Чтобы увеличить приток посетителей и позволить деревне разбогатеть, он взрывает рельсы прямо перед тем самым экспрессом, набитым миллионерами из Шанхая. На этот же поезд пытались залезть и беглый начальник полиции с подчиненными. В результате они попадают прямо в деревенскую тюрьму, а пассажиры экспресса - в салон Чина… Великолепные, зрелищные боевые сцены, которые сегодня стали бесспорным образцом гонконгской кинопродукции середины 80-х гг. (Поставлены каскадерской ассоциацией Саммо Хунга)
-
Доп. информация:
-
Сэмпл: http://sendfile.su/1040145
-
Качество видео: DVDRip (DVD5/ilya29)
Формат видео: AVI
Видео: 704x288 (2.44:1), 25 fps, XviD build 65 ~1952 kbps avg, 0.39 bit/pixel
Аудио 1: 48 kHz, AC3 Dolby Digital, 2/0 (L,R) ch, ~192 kbps Рен-ТВ
Аудио 2: 48 kHz, AC3 Dolby Digital, 2/0 (L,R) ch, ~192 kbps Дохалов
Аудио 3: 48 kHz, AC3 Dolby Digital, 2/0 (L,R) ch, ~192 kbps Кашкин
Аудио 4: 48 kHz, AC3 Dolby Digital, 2/0 (L,R) ch, ~192 kbps Кузнецов Отдельно
О версии
За основу взята немецкая укороченная версия (меньше чем ВХСная на 6 минут) .... там нету куска в начале на пару минут (обсуждение бандитами поезда) + где Бьяо толкает речь кто будет начальником полиции (1,5 мин.) + по приезду Саммо, сцены в гостинице малёк подрезаны, где Бьяо пытается всё Саммо вывести на чистую воду (зато есть пару фрагментов из полной версии) + нету когда затачивали магниты .... особой смысловой нагрузки нету , но зато есть другой прикольный момент сек. 20, в общем вся разница в первых 38 минутах, но вроде д.б. без особых напрягов + когда ссыт на пулемёт есть фрагмент, в ВХС не было, из-за эстетических наверно соображений ... это разница между этой версией и ВХСной
MediaInfo
General
Complete name : C:\Users\ALEX\Downloads\Фильмы\Shanghai Express.Millionaires Express.Foo gwai lit che.German Cut.1986.TRIPLERUS.DVDRip.XviD.AC3\Shanghai Express.Millionaires Express.Foo gwai lit che.German Cut.1986.TRIPLERUS.DVDRip.XviD.AC3.avi
Format : AVI
Format/Info : Audio Video Interleave
File size : 1.46 GiB
Duration : 1h 22mn
Overall bit rate : 2 548 Kbps
Writing application : VirtualDubMod 1.5.10.2 (build 2542/release)
Writing library : VirtualDubMod build 2542/release
Video
ID : 0
Format : MPEG-4 Visual
Format profile : Advanced Simple@L5
Format settings, BVOP : 1
Format settings, QPel : No
Format settings, GMC : No warppoints
Format settings, Matrix : Custom
Codec ID : XVID
Codec ID/Hint : XviD
Duration : 1h 22mn
Bit rate : 1 954 Kbps
Width : 704 pixels
Height : 288 pixels
Display aspect ratio : 2.40:1
Frame rate : 25.000 fps
Color space : YUV
Chroma subsampling : 4:2:0
Bit depth : 8 bits
Scan type : Progressive
Compression mode : Lossy
Bits/(Pixel*Frame) : 0.385
Stream size : 1.12 GiB (77%)
Writing library : XviD 65
Audio #1
ID : 1
Format : AC-3
Format/Info : Audio Coding 3
Mode extension : CM (complete main)
Format settings, Endianness : Big
Codec ID : 2000
Duration : 1h 21mn
Bit rate mode : Constant
Bit rate : 192 Kbps
Channel(s) : 2 channels
Channel positions : Front: L R
Sampling rate : 48.0 KHz
Bit depth : 16 bits
Compression mode : Lossy
Stream size : 113 MiB (8%)
Alignment : Split accross interleaves
Interleave, duration : 40 ms (1.00 video frame)
Interleave, preload duration : 500 ms
Audio #2
ID : 2
Format : AC-3
Format/Info : Audio Coding 3
Mode extension : CM (complete main)
Format settings, Endianness : Big
Codec ID : 2000
Duration : 1h 21mn
Bit rate mode : Constant
Bit rate : 192 Kbps
Channel(s) : 2 channels
Channel positions : Front: L R
Sampling rate : 48.0 KHz
Bit depth : 16 bits
Compression mode : Lossy
Stream size : 113 MiB (8%)
Alignment : Split accross interleaves
Interleave, duration : 40 ms (1.00 video frame)
Interleave, preload duration : 500 ms
Audio #3
ID : 3
Format : AC-3
Format/Info : Audio Coding 3
Mode extension : CM (complete main)
Format settings, Endianness : Big
Codec ID : 2000
Duration : 1h 21mn
Bit rate mode : Constant
Bit rate : 192 Kbps
Channel(s) : 2 channels
Channel positions : Front: L R
Sampling rate : 48.0 KHz
Bit depth : 16 bits
Compression mode : Lossy
Stream size : 113 MiB (8%)
Alignment : Split accross interleaves
Interleave, duration : 40 ms (1.00 video frame)
Interleave, preload duration : 500 ms
Скриншоты
Скачать

Скачать торрент! Экспресс миллионеров / Шанхайский экспресс / Shanghai Express / Millionaires Express / Foo gwai lit che (Саммо Хунг Кам-Бо / Sammo Hung Kam-Bo) [1986, Гонконг, боевик, комедия, DVDRip] [German Cut] DVO (Рен-ТВ) + 3x AVO (Дохалов, Кашкин, Кузнецов)

Как скачивать? · Что такое торрент? · Рейтинг и ограничения

Сайт не распространяет и не хранит электронные версии произведений, а лишь предоставляет доступ к создаваемому пользователями каталогу ссылок на торрент-файлы, которые содержат только списки хеш-сумм

[Профиль] [ЛС]
Показать сообщения:    
Ответить на тему

Текущее время: Сегодня 17:42

Часовой пояс: GMT + 4



Вы не можете начинать темы
Вы не можете отвечать на сообщения
Вы не можете редактировать свои сообщения
Вы не можете удалять свои сообщения
Вы не можете голосовать в опросах
Вы не можете прикреплять файлы к сообщениям
Вы не можете скачивать файлы