Трансформеры: Эпоха истребления / Transformers: Age of Extinction (Майкл Бэй / Michael Bay) [2014, США, Китай, Фантастика, боевик, приключения, BDRip-AVC] Dub + Sub Rus, Eng + Original Eng

Ответить на тему
 
Автор Сообщение

user ®

Стаж: 7 лет 7 месяцев

Сообщений: 20008

Пост Пост: #1 от 26-Окт-2014 23:40

[Цитировать]

Трансформеры: Эпоха истребленияTransformers: Age of Extinction«Сражаться вместе... Или погибнуть вместе»
Страна: США, Китай / Di Bonaventura Pictures, Hasbro Inc., Ian Bryce Productions, Paramount Pictures..
Жанр: Фантастика, боевик, приключения
Год выпуска: 2014
Продолжительность: 02:45:07
Перевод: Профессиональный (дублированный) [ iTunes]
Cубтитры: русские,английские
Оригинальная аудиодорожка: английский
Режиссер: Майкл Бэй / Michael Bay
В ролях: Марк Уолберг, Никола Пельтц, Джек Рейнор, Стэнли Туччи, Келси Грэммер, Титус Уэлливер, ТиДжей Миллер, Ли Бинбин, София Майлс, Питер Каллен.
Описание: Автоботы и десептиконы оставили человечество собирать планету по кусочкам. Между тем группа могущественных бизнесменов и гениальных ученых пытается извлечь уроки из ошибок прошлого и улучшить технологии до такой степени, чтобы выйти за пределы контролируемого ранее. В это время другая группа — древних мощных трансформеров — берёт Землю под прицел.
Доп. информация:

Автор рипа: IVAN@190282
Качество видео: BDRip-AVC |Трансформеры: Эпоха истребления / Transformers: Age of Extinctionl (2014) 1080p BD-Remux|HD Club|
Формат видео: MKV
Видео: 1050x438 (2,35:1), 23.976 fps, 3 265 Кbps, 0.296 bit/pixe
Аудио: 48 kHz, AC3 Dolby Digital, 3/2 (L,C,R,l,r) + LFE ch, 384.00 kbps | DUB
Аудио 2: 48 kHz, AC3 Dolby Digital, 3/2 (L,C,R,l,r) + LFE ch, 448.00 kbps | ENG
Формат субтитров: softsub (SRT)
Доп. информация о субтитрах: отключаемые
MediaInfo
General
Unique ID : 235353116697102986782313943665356791580 (0xB10F5C8AF2BDDAA88CA8E61F42CB5F1C)
Complete name : E:\Мои рипы\Трансформеры Эпоха истребления\Трансформеры_Эпоха истребления by_IVAN@190282.mkv
Format : Matroska
Format version : Version 4 / Version 2
File size : 4.73 GiB
Duration : 2h 45mn
Overall bit rate : 4 099 Kbps
Encoded date : UTC 2014-10-25 23:47:47
Writing application : mkvmerge v7.0.0 ('Where We Going') 64bit built on Jun 9 2014 15:16:27
Writing library : libebml v1.3.0 + libmatroska v1.4.1
DURATION : 02:34:34.390000000
NUMBER_OF_FRAMES : 2197
NUMBER_OF_BYTES : 72200
_STATISTICS_WRITING_APP : mkvmerge v7.0.0 ('Where We Going') 64bit built on Jun 9 2014 15:16:27
_STATISTICS_WRITING_DATE_UTC : 2014-10-25 23:47:47
_STATISTICS_TAGS : BPS DURATION NUMBER_OF_FRAMES NUMBER_OF_BYTES
Video
ID : 1
Format : AVC
Format/Info : Advanced Video Codec
Format profile : High@L4.1
Format settings, CABAC : Yes
Format settings, ReFrames : 13 frames
Codec ID : V_MPEG4/ISO/AVC
Duration : 2h 45mn
Bit rate : 3 265 Kbps
Width : 1 050 pixels
Height : 438 pixels
Display aspect ratio : 2.35:1
Original display aspect ratio : 2.35:1
Frame rate mode : Constant
Frame rate : 23.976 fps
Color space : YUV
Chroma subsampling : 4:2:0
Bit depth : 8 bits
Scan type : Progressive
Bits/(Pixel*Frame) : 0.296
Stream size : 3.67 GiB (78%)
Writing library : x264 core 142 r2479kMod dd79a61
Encoding settings : cabac=1 / ref=13 / deblock=1:-3:-3 / analyse=0x3:0x113 / me=umh / subme=11 / psy=1 / fade_compensate=0.00 / psy_rd=1.00:0.15 / mixed_ref=1 / me_range=48 / chroma_me=1 / trellis=2 / 8x8dct=1 / cqm=0 / deadzone=21,11 / fast_pskip=0 / chroma_qp_offset=0 / threads=6 / lookahead_threads=6 / sliced_threads=0 / slices=10 / nr=0 / decimate=1 / interlaced=0 / bluray_compat=0 / constrained_intra=0 / fgo=0 / bframes=16 / b_pyramid=2 / b_adapt=2 / b_bias=0 / direct=3 / weightb=1 / open_gop=1 / weightp=2 / keyint=240 / keyint_min=23 / scenecut=40 / intra_refresh=0 / rc_lookahead=40 / rc=2pass / mbtree=0 / bitrate=3265 / ratetol=1.0 / qcomp=0.60 / qpmin=0 / qpmax=69 / qpstep=4 / cplxblur=20.0 / qblur=0.5 / vbv_maxrate=50000 / vbv_bufsize=62500 / nal_hrd=none / filler=0 / ip_ratio=1.40 / pb_ratio=1.30 / aq=1:1.00
Default : Yes
Forced : No
Color primaries : BT.709
Transfer characteristics : BT.709
Matrix coefficients : BT.709
Audio #1
ID : 2
Format : AC-3
Format/Info : Audio Coding 3
Mode extension : CM (complete main)
Format settings, Endianness : Big
Codec ID : A_AC3
Duration : 2h 45mn
Bit rate mode : Constant
Bit rate : 384 Kbps
Channel(s) : 6 channels
Channel positions : Front: L C R, Side: L R, LFE
Sampling rate : 48.0 KHz
Bit depth : 16 bits
Compression mode : Lossy
Stream size : 454 MiB (9%)
Default : Yes
Forced : No
Audio #2
ID : 3
Format : AC-3
Format/Info : Audio Coding 3
Mode extension : CM (complete main)
Format settings, Endianness : Big
Codec ID : A_AC3
Duration : 2h 45mn
Bit rate mode : Constant
Bit rate : 448 Kbps
Channel(s) : 6 channels
Channel positions : Front: L C R, Side: L R, LFE
Sampling rate : 48.0 KHz
Bit depth : 16 bits
Compression mode : Lossy
Stream size : 529 MiB (11%)
Default : No
Forced : No
Text #1
ID : 4
Format : UTF-8
Codec ID : S_TEXT/UTF8
Codec ID/Info : UTF-8 Plain Text
Default : Yes
Forced : No
Text #2
ID : 5
Format : UTF-8
Codec ID : S_TEXT/UTF8
Codec ID/Info : UTF-8 Plain Text
Default : No
Forced : No
x264 log
x264 [info]: frame I:1630 Avg QP:18.11 size: 74074
x264 [info]: frame P:76299 Avg QP:21.84 size: 26939
x264 [info]: frame B:159609 Avg QP:23.78 size: 11684
x264 [info]: consecutive B-frames: 8.1% 9.0% 20.7% 33.2% 10.6% 14.3% 1.6% 1.1% 0.5% 0.5% 0.2% 0.1% 0.0% 0.0% 0.0% 0.0% 0.1%
x264 [info]: kb/s:3263.11
x264 [total]: encoded 237538 frames, 7.47 fps, 3263.11 kb/s, duration 8:49:50.11
Скриншот c названием фильма Скриншоты
Скачать

Скачать торрент!

Как скачивать? · Что такое торрент? · Рейтинг и ограничения

Сайт не распространяет и не хранит электронные версии произведений, а лишь предоставляет доступ к создаваемому пользователями каталогу ссылок на торрент-файлы, которые содержат только списки хеш-сумм

[Профиль] [ЛС]
Показать сообщения:    
Ответить на тему

Текущее время: Сегодня 14:27

Часовой пояс: GMT + 4



Вы не можете начинать темы
Вы не можете отвечать на сообщения
Вы не можете редактировать свои сообщения
Вы не можете удалять свои сообщения
Вы не можете голосовать в опросах
Вы не можете прикреплять файлы к сообщениям
Вы не можете скачивать файлы