Пришельцы / Extraterrestrial (Колин Минихан / Colin Minihan) [2014, Канада, ужасы, фантастика, HDRip] MVO (ViruseProject) + Original + Sub rus, eng

Ответить на тему
 
Автор Сообщение

user ®

Стаж: 7 лет 7 месяцев

Сообщений: 20008

Пост Пост: #1 от 26-Окт-2014 23:40

[Цитировать]

Пришельцы / Extraterrestrial
Год выпуска: 2014
Страна: Канада
Жанр: ужасы, фантастика
Продолжительность: 01:40:40
Перевод: Любительский (Многоголосый закадровый) ViruseProject
Русские субтитры: есть
Режиссёр: Колин Минихан / Colin Minihan
В ролях: Бриттани Аллен, Фредди Строма (Гарри Поттер 1-3), Джесси Мосс (Убойные каникулы, Оборотень, Незваные), Мелани Папалиа, Джил Беллоуз (Побег из Шоушенка, Немыслимое, 24: Искупление), Майкл Айронсайд (Вспомнить всё, Звездный десант, Машинист, Майор Пэйн, Люди Икс: Первый класс, Освободите Вилли), Аня Савчич, Шон Роджерсон, Эмили Перкинс, Майк Ковач и др.
Описание: Человечество давно подозревает, что не одиноко во Вселенной. Загадочные вспышки в ночном небе, летательные аппараты явно не земного происхождения, таинственные исчезновения людей - это ли не свидетельства существования иного разума? Многие с нетерпением ждут встречи с представителями внеземной цивилизации.
А вдруг они давно уже здесь? И по соглашению с правительством используют Землю как большой полигон для научных экспериментов?
Тогда главное - не вмешиваться.
ВНИМАНИЕ!!! В фильме присутствует ненормативная лексика. (в очень скромном количестве)



Роли озвучивали: Елена Емельянова, Марина Видякина, Полина Касаткина, Дмитрий Иванов, Дмитрий Кравченко, Алекс Викке, Алексей Кизуб и Александр Федеров
Перевод: Татьяна Масаковская
Сведение звука, подготовка видео, монтаж, редакция перевода: viruse (Виталий Емельянов)
смотреть трейлер фильма на русском
скачать СЕМПЛ с multi-up
Качество: HDRip
Формат: AVI
Видео кодек: XviD
Аудио кодек: AC3
Видео: 720x304 (2.37:1), 23.976 fps, XviD build 50 ~1689 kbps avg, 0.32 bit/pixel
Аудио №1: 48 kHz, AC3 Dolby Digital, 3/2 (L,C,R,l,r) + LFE ch, ~384 kbps - ViruseProject
Аудио №2: 48 kHz, AC3 Dolby Digital, 3/2 (L,C,R,l,r) + LFE ch, ~384 kbps - Оригинал (отдельная)
Субтитры: softsub (SRT) (Русские/Английские) - отдельные
MediaInfo
General
Complete name : E:\ОЗВУЧКА\ФИЛЬМЫ\ПРИШЕЛЬЦЫ\Extraterrestrial.2014.HDRip.ViruseProject\Extraterrestrial.2014.HDRip.ViruseProject.avi
Format : AVI
Format/Info : Audio Video Interleave
File size : 1.46 GiB
Duration : 1h 40mn
Overall bit rate : 2 083 Kbps
Writing application : VirtualDubMod 1.5.10.2 (build 2540/release)
Writing library : VirtualDubMod build 2540/release
Video
ID : 0
Format : MPEG-4 Visual
Format profile : Advanced Simple@L5
Format settings, BVOP : 1
Format settings, QPel : No
Format settings, GMC : No warppoints
Format settings, Matrix : Default (MPEG)
Codec ID : XVID
Codec ID/Hint : XviD
Duration : 1h 40mn
Bit rate : 1 690 Kbps
Width : 720 pixels
Height : 304 pixels
Display aspect ratio : 2.35:1
Frame rate : 23.976 fps
Color space : YUV
Chroma subsampling : 4:2:0
Bit depth : 8 bits
Scan type : Progressive
Compression mode : Lossy
Bits/(Pixel*Frame) : 0.322
Stream size : 1.19 GiB (81%)
Writing library : XviD 1.2.1 (UTC 2008-12-04)
Audio
ID : 1
Format : AC-3
Format/Info : Audio Coding 3
Mode extension : CM (complete main)
Format settings, Endianness : Big
Codec ID : 2000
Duration : 1h 40mn
Bit rate mode : Constant
Bit rate : 384 Kbps
Channel(s) : 6 channels
Channel positions : Front: L C R, Side: L R, LFE
Sampling rate : 48.0 KHz
Bit depth : 16 bits
Compression mode : Lossy
Stream size : 277 MiB (18%)
Alignment : Split accross interleaves
Interleave, duration : 42 ms (1.00 video frame)
Interleave, preload duration : 500 ms
Скриншоты
Скачать

Скачать торрент!

Как скачивать? · Что такое торрент? · Рейтинг и ограничения

Сайт не распространяет и не хранит электронные версии произведений, а лишь предоставляет доступ к создаваемому пользователями каталогу ссылок на торрент-файлы, которые содержат только списки хеш-сумм

[Профиль] [ЛС]
Показать сообщения:    
Ответить на тему

Текущее время: Сегодня 01:16

Часовой пояс: GMT + 4



Вы не можете начинать темы
Вы не можете отвечать на сообщения
Вы не можете редактировать свои сообщения
Вы не можете удалять свои сообщения
Вы не можете голосовать в опросах
Вы не можете прикреплять файлы к сообщениям
Вы не можете скачивать файлы