Девочка и кот - Четыре серии (Сергей Рябов) [2012, мультфильмы, WEBRip-AVC]

Ответить на тему
 
Автор Сообщение

user ®

Стаж: 7 лет 7 месяцев

Сообщений: 20008

Пост Пост: #1 от 26-Окт-2014 20:30

[Цитировать]

Девочка и кот (четыре серии)
Режиссёр: Сергей Рябов
Описание: Коротенькие юмористические сюжеты про девочку и её кота.
Доп. информация: Минисериал отдельно интересен для тех, чьё детство пришлось на 80-тые годы прошлого века. В антураже присутствуют атрибуты тех лет: чёрно-белый ламповый телевизор, катушечный магнитофон, букварь с Мурзилкой на обложке, Брежнев перед Новогодним Огоньком... Приятной ностальгии.
Сосиска
Страна: Россия
Жанр: мультфильм
Год выпуска: 2012
Продолжительность: 00:00:49
Качество видео: WEBRip-AVC
Формат видео: MP4
Видео: 1339 kbps, 1280х720 (16:9), 25.000 fps, AVC (High@L3.1)
Аудио: 192 kbps, 44.1 kHz, 2 channels, AAC (LC)
Субтитры: отсутствуют
MediaInfo
General
Complete name : 1 серия - Сосиска.mp4
Format : MPEG-4
Format profile : Base Media / Version 2
Codec ID : mp42
File size : 9.14 MiB
Duration : 49s 968ms
Overall bit rate mode : Variable
Overall bit rate : 1 534 Kbps
Encoded date : UTC 2014-07-22 06:13:43
Tagged date : UTC 2014-07-22 06:13:43
gsst : 0
gstd : 50061
gssd : B4A7DD801MH1412357271396003
gshh : r1---sn-cg07luee.googlevideo.com
Video
ID : 1
Format : AVC
Format/Info : Advanced Video Codec
Format profile : High@L3.1
Format settings, CABAC : Yes
Format settings, ReFrames : 1 frame
Format settings, GOP : M=1, N=60
Codec ID : avc1
Codec ID/Info : Advanced Video Coding
Duration : 49s 960ms
Bit rate : 1 339 Kbps
Maximum bit rate : 4 566 Kbps
Width : 1 280 pixels
Height : 720 pixels
Display aspect ratio : 16:9
Frame rate mode : Constant
Frame rate : 25.000 fps
Color space : YUV
Chroma subsampling : 4:2:0
Bit depth : 8 bits
Scan type : Progressive
Bits/(Pixel*Frame) : 0.058
Stream size : 7.98 MiB (87%)
Tagged date : UTC 2014-07-22 06:13:44
Audio
ID : 2
Format : AAC
Format/Info : Advanced Audio Codec
Format profile : LC
Codec ID : 40
Duration : 49s 968ms
Bit rate mode : Variable
Bit rate : 192 Kbps
Maximum bit rate : 201 Kbps
Channel(s) : 2 channels
Channel positions : Front: L R
Sampling rate : 44.1 KHz
Compression mode : Lossy
Stream size : 1.14 MiB (13%)
Title : IsoMedia File Produced by Google, 5-11-2011
Encoded date : UTC 2014-07-22 06:13:43
Tagged date : UTC 2014-07-22 06:13:44
Скриншоты Новогодний Огонёк
Страна: Россия
Жанр: мультфильм
Год выпуска: 2012
Продолжительность: 00:00:51
Качество видео: WEBRip-AVC
Формат видео: MP4
Видео: 2540 kbps, 1280х720 (16:9), 25.000 fps, AVC (High@L3.1)
Аудио: 192 kbps, 44.1 kHz, 2 channels, AAC (LC)
Субтитры: отсутствуют
MediaInfo
General
Complete name : 2 серия - Новогодний огонёк.mp4
Format : MPEG-4
Format profile : Base Media / Version 2
Codec ID : mp42
File size : 16.6 MiB
Duration : 51s 13ms
Overall bit rate mode : Variable
Overall bit rate : 2 734 Kbps
Encoded date : UTC 2014-07-17 15:12:13
Tagged date : UTC 2014-07-17 15:12:13
gsst : 0
gstd : 51060
gssd : B5FB51007MH1412357212999462
gshh : r4---sn-xapbiu-3xwe.googlevideo.com
Video
ID : 1
Format : AVC
Format/Info : Advanced Video Codec
Format profile : High@L3.1
Format settings, CABAC : Yes
Format settings, ReFrames : 1 frame
Codec ID : avc1
Codec ID/Info : Advanced Video Coding
Duration : 51s 0ms
Bit rate : 2 540 Kbps
Maximum bit rate : 6 713 Kbps
Width : 1 280 pixels
Height : 720 pixels
Display aspect ratio : 16:9
Frame rate mode : Constant
Frame rate : 25.000 fps
Color space : YUV
Chroma subsampling : 4:2:0
Bit depth : 8 bits
Scan type : Progressive
Bits/(Pixel*Frame) : 0.110
Stream size : 15.4 MiB (93%)
Tagged date : UTC 2014-07-17 15:12:19
Audio
ID : 2
Format : AAC
Format/Info : Advanced Audio Codec
Format profile : LC
Codec ID : 40
Duration : 51s 13ms
Bit rate mode : Variable
Bit rate : 192 Kbps
Maximum bit rate : 203 Kbps
Channel(s) : 2 channels
Channel positions : Front: L R
Sampling rate : 44.1 KHz
Compression mode : Lossy
Stream size : 1.17 MiB (7%)
Title : IsoMedia File Produced by Google, 5-11-2011
Encoded date : UTC 2014-07-17 15:12:19
Tagged date : UTC 2014-07-17 15:12:19
Скриншоты Весёлые картинки
Страна: Россия
Жанр: мультфильм
Год выпуска: 2012
Продолжительность: 00:00:48
Качество видео: WEBRip-AVC
Формат видео: MP4
Видео: 1586 kbps, 1280х720 (16:9), 25.000 fps, AVC (High@L3.1)
Аудио: 192 kbps, 44.1 kHz, 2 channels, AAC (LC)
Субтитры: отсутствуют
MediaInfo
General
Complete name : 3 серия - Весёлые картинки.mp4
Format : MPEG-4
Format profile : Base Media / Version 2
Codec ID : mp42
File size : 10.3 MiB
Duration : 48s 692ms
Overall bit rate mode : Variable
Overall bit rate : 1 780 Kbps
Encoded date : UTC 2014-07-17 15:11:54
Tagged date : UTC 2014-07-17 15:11:54
gsst : 0
gstd : 48738
gssd : B5FB51005MH1412357325960310
gshh : r2---sn-xapbiu-3xwe.googlevideo.com
Video
ID : 1
Format : AVC
Format/Info : Advanced Video Codec
Format profile : High@L3.1
Format settings, CABAC : Yes
Format settings, ReFrames : 1 frame
Codec ID : avc1
Codec ID/Info : Advanced Video Coding
Duration : 48s 680ms
Bit rate : 1 586 Kbps
Maximum bit rate : 3 831 Kbps
Width : 1 280 pixels
Height : 720 pixels
Display aspect ratio : 16:9
Frame rate mode : Constant
Frame rate : 25.000 fps
Color space : YUV
Chroma subsampling : 4:2:0
Bit depth : 8 bits
Scan type : Progressive
Bits/(Pixel*Frame) : 0.069
Stream size : 9.20 MiB (89%)
Tagged date : UTC 2014-07-17 15:11:54
Audio
ID : 2
Format : AAC
Format/Info : Advanced Audio Codec
Format profile : LC
Codec ID : 40
Duration : 48s 692ms
Bit rate mode : Variable
Bit rate : 192 Kbps
Maximum bit rate : 201 Kbps
Channel(s) : 2 channels
Channel positions : Front: L R
Sampling rate : 44.1 KHz
Compression mode : Lossy
Stream size : 1.11 MiB (11%)
Title : IsoMedia File Produced by Google, 5-11-2011
Encoded date : UTC 2014-07-17 15:11:54
Tagged date : UTC 2014-07-17 15:11:54
Скриншоты У костра
Страна: Россия
Жанр: мультфильм
Год выпуска: 2012
Продолжительность: 00:00:50
Качество видео: WEBRip-AVC
Формат видео: MP4
Видео: 1893 kbps, 1280х720 (16:9), 25.000 fps, AVC (High@L3.1)
Аудио: 192 kbps, 44.1 kHz, 2 channels, AAC (LC)
Субтитры: отсутствуют
MediaInfo
General
Complete name : 4 серия - У костра.mp4
Format : MPEG-4
Format profile : Base Media / Version 2
Codec ID : mp42
File size : 12.4 MiB
Duration : 50s 15ms
Overall bit rate mode : Variable
Overall bit rate : 2 087 Kbps
Encoded date : UTC 2014-07-17 15:12:59
Tagged date : UTC 2014-07-17 15:12:59
gsst : 0
gstd : 50061
gssd : B4A7DD825MH1412356952839299
gshh : r5---sn-cg07luel.googlevideo.com
Video
ID : 1
Format : AVC
Format/Info : Advanced Video Codec
Format profile : High@L3.1
Format settings, CABAC : Yes
Format settings, ReFrames : 1 frame
Codec ID : avc1
Codec ID/Info : Advanced Video Coding
Duration : 50s 0ms
Bit rate : 1 893 Kbps
Maximum bit rate : 7 265 Kbps
Width : 1 280 pixels
Height : 720 pixels
Display aspect ratio : 16:9
Frame rate mode : Constant
Frame rate : 25.000 fps
Color space : YUV
Chroma subsampling : 4:2:0
Bit depth : 8 bits
Scan type : Progressive
Bits/(Pixel*Frame) : 0.082
Stream size : 11.3 MiB (91%)
Tagged date : UTC 2014-07-17 15:12:59
Audio
ID : 2
Format : AAC
Format/Info : Advanced Audio Codec
Format profile : LC
Codec ID : 40
Duration : 50s 15ms
Bit rate mode : Variable
Bit rate : 192 Kbps
Maximum bit rate : 202 Kbps
Channel(s) : 2 channels
Channel positions : Front: L R
Sampling rate : 44.1 KHz
Compression mode : Lossy
Stream size : 1.14 MiB (9%)
Title : IsoMedia File Produced by Google, 5-11-2011
Encoded date : UTC 2014-07-17 15:12:59
Tagged date : UTC 2014-07-17 15:12:59
Скриншоты
Скачать

Скачать торрент!

Как скачивать? · Что такое торрент? · Рейтинг и ограничения

Сайт не распространяет и не хранит электронные версии произведений, а лишь предоставляет доступ к создаваемому пользователями каталогу ссылок на торрент-файлы, которые содержат только списки хеш-сумм

[Профиль] [ЛС]
Показать сообщения:    
Ответить на тему

Текущее время: Сегодня 06:30

Часовой пояс: GMT + 4



Вы не можете начинать темы
Вы не можете отвечать на сообщения
Вы не можете редактировать свои сообщения
Вы не можете удалять свои сообщения
Вы не можете голосовать в опросах
Вы не можете прикреплять файлы к сообщениям
Вы не можете скачивать файлы