Гнев короля / The Fatal Encounter / King\'s Wrath (Ли Чже Гю / Lee Jae Kyu) [2014, Южная Корея, исторический, HDRip] VO

Ответить на тему
 
Автор Сообщение

user ®

Стаж: 13 лет

Сообщений: 15071

Пост Пост: #1 от 26-Окт-2014 20:30

[Цитировать]

Гнев короля / The Fatal Encounter / King's Wrath
Страна: Южная Корея
Жанр: исторический
Год выпуска: 2014
Продолжительность: 2:16:05
Перевод: Одноголосый закадровый
Cубтитры: нет
Оригинальная аудиодорожка: корейская
Режиссер: Ли Чже Гю / Lee Jae Kyu
В ролях:
Hyun Bin / Хён Бин - король Чончжо
Jung Jae Young / Чжон Чже Ён - ассасин Кап Су
Cho Jung Seok / Чо Чон Сок - ассасин Ёль Су
Han Ji Min / Хан Чжи Мин - королева вдова
Cho Jae Hyun / Чо Чжэ Хён - Кван
Park Sung Woong / Пак Сон Ун - начальник стражи Хон
Kim Sung Ryoung / Ким Сон Нён - мать короля Чончжо
Описание
Король Чончжо находится у власти всего один год. Но он уже пережил множество покушений на его жизнь. Дворец переполнен интригами. Враг не дремлет и в каждую секунду готов нанести новый удар. Король может довериться только евнуху, с которым вырос, и командующему Хону.
Королева вдова и люди из партии Норон готовят новый заговор против правителя с целью уничтожить его и освободить трон. Для этого дела был нанят профессиональный убийца Ёль Су, у которого своя нелегкая история жизни и лишь одна цель - выжить ради единственного дорогого ему человека, любимой девушки.
Гнев короля, притаившийся со дня смерти отца, наследного принца Садо, многие годы выжидал своего часа, чтобы разразиться над головами предателей и уничтожить ненасытного врага. Сможет ли выстоять король Чончжо в этот раз?
(с) Лана
Каст
Доп. информация:

Релиз-группа "ClubFATE"
Озвучивание: Lana
Перевод фансаб-группы "SUBfire"

Сэмпл: http://multi-up.com/1008370
Качество видео: HDRip
Формат видео: AVI
Видео: XviD, 720х480, 3:2, 29.970 fps, 1 443 Kbps
Аудио: MP3, 44.1 KHz, 256 Kbps, 2 channels
Аудио 2: MP3, 44.1 KHz, 32.0 Kbps, 2 channels
MediaInfo
Format : AVI
Format/Info : Audio Video Interleave
File size : 1.81 GiB
Duration : 2h 16mn
Overall bit rate : 1 905 Kbps
Writing application : VirtualDubModRus 1.5.10.2 (build 2542/release)
Writing library : VirtualDubMod build 2542/release
Video
ID : 0
Format : MPEG-4 Visual
Format profile : Simple@L3
Format settings, BVOP : No
Format settings, QPel : No
Format settings, GMC : No warppoints
Format settings, Matrix : Default (H.263)
Codec ID : XVID
Codec ID/Hint : XviD
Duration : 2h 16mn
Bit rate : 1 443 Kbps
Width : 720 pixels
Height : 480 pixels
Display aspect ratio : 3:2
Frame rate : 29.970 fps
Standard : NTSC
Color space : YUV
Chroma subsampling : 4:2:0
Bit depth : 8 bits
Scan type : Progressive
Compression mode : Lossy
Bits/(Pixel*Frame) : 0.139
Stream size : 1.37 GiB (76%)
Writing library : XviD 1.2.1 (UTC 2008-12-04)
Audio #1
ID : 1
Format : MPEG Audio
Format version : Version 1
Format profile : Layer 3
Codec ID : 55
Codec ID/Hint : MP3
Duration : 2h 16mn
Bit rate mode : Constant
Bit rate : 256 Kbps
Channel(s) : 2 channels
Sampling rate : 44.1 KHz
Compression mode : Lossy
Stream size : 249 MiB (13%)
Alignment : Split accross interleaves
Interleave, duration : 33 ms (1.00 video frame)
Interleave, preload duration : 500 ms
Audio #2
ID : 2
Format : MPEG Audio
Format version : Version 1
Format profile : Layer 3
Mode : Joint stereo
Mode extension : MS Stereo
Codec ID : 55
Codec ID/Hint : MP3
Duration : 2h 16mn
Bit rate mode : Constant
Bit rate : 32.0 Kbps
Channel(s) : 2 channels
Sampling rate : 44.1 KHz
Compression mode : Lossy
Stream size : 181 MiB (10%)
Alignment : Aligned on interleaves
Interleave, duration : 26 ms (0.78 video frame)
Interleave, preload duration : 89 ms
Writing library : LAME3.98
Скриншот c названием фильма Скриншоты
Скачать

Скачать торрент! Гнев короля / The Fatal Encounter / King\'s Wrath (Ли Чже Гю / Lee Jae Kyu) [2014, Южная Корея, исторический, HDRip] VO

Как скачивать? · Что такое торрент? · Рейтинг и ограничения

Сайт не распространяет и не хранит электронные версии произведений, а лишь предоставляет доступ к создаваемому пользователями каталогу ссылок на торрент-файлы, которые содержат только списки хеш-сумм

[Профиль] [ЛС]
Показать сообщения:    
Ответить на тему

Текущее время: Сегодня 11:07

Часовой пояс: GMT + 4



Вы не можете начинать темы
Вы не можете отвечать на сообщения
Вы не можете редактировать свои сообщения
Вы не можете удалять свои сообщения
Вы не можете голосовать в опросах
Вы не можете прикреплять файлы к сообщениям
Вы не можете скачивать файлы