Дневник учителя / Teacher\'s Diary / Kid Teung Wittaya (Нитиуат Таратон / Nithiwat Tharathorn) [2014, Таиланд, романтика, мелодрама, DVDRip] Sub Rus

Ответить на тему
 
Автор Сообщение

user ®

Стаж: 13 лет

Сообщений: 15071

Пост Пост: #1 от 26-Окт-2014 20:30

[Цитировать]

Дневник учителя / Teacher's Diary / Kid Teung Wittaya
Страна: Таиланд
Жанр: романтика, мелодрама
Год выпуска: 2014
Продолжительность: 01:45:16
Перевод: Субтитры
Cубтитры: русские
Оригинальная аудиодорожка: Тайский
Режиссер: Нитиуат Таратон / Nithiwat Tharathorn
В ролях:
Bie Sukrit Wisetkaew в роли Сон
Ploy Chermarn Boonyasak в роли Эн
Weir Sukollawat Kanarot в роли Нуй
Описание:
Данная история рассказывает о жизни, таких разных, но все же похожих людях.
Сон - бывший спортсмен. Его история начинается в 2012 году, когда он приходит устраиваться на должность учителя. В результате чего, его отправляют в сельскую местность, учителем в школе на воде. Он сталкивается с большими трудностями, и кажется, что его жизнь разрушена, но как лучик в темноте, его жизнь приобретает смысл. Он находит дневник учителя, преподававшего годом ранее. В процессе его изучения, происходит много хорошего и плохого. Сон начинает смотреть на жизнь по-новому. И жутко хочется узнать как же выглядит учитель Эн.
Эн - учитель от бога. Из-за стечения обстоятельств, она в 2011 году преподавала в школе на воде, а затем вернулась в город. Спустя 2 года, она возвращается, и находит свой дневник, полупорванный и затертый. В процессе его осмотра, она обнаруживает новые записи, сделанные учителем Сон. © Siara
Совместный проект Kingdom Loli-Pop_Stars и Cheeza
Перевод - Albin
Тайминг, редакция – Siara
Доп. информация:
Кинопоик
IMDB
Сэмпл
Качество видео: DVDRip
Формат видео: AVI
Видео: xvid, 720x304, 23 кадр/сек, 1665 Кбит/сек
Аудио: MP3 кодек, 48 KHz, 192 Кбит/сек, 2 канала
Формат субтитров: softsub (SRT)
MediaInfo
Формат : AVI
Формат/Информация : Audio Video Interleave
Профиль формата : OpenDML
Размер файла : 1,38 Гбайт
Продолжительность : 1 ч. 45 м.
Общий поток : 1872 Кбит/сек
Программа кодирования : Lavf55.19.104
Видео
Идентификатор : 0
Формат : xvid
Идентификатор кодека : xvid
Продолжительность : 1 ч. 45 м.
Битрейт : 1665 Кбит/сек
Ширина : 720 пикселей
Высота : 304 пикселя
Соотношение сторон : 2,35:1
Частота кадров : 23,976 кадра/сек
Бит/(Пиксели*Кадры) : 0.317
Размер потока : 1,22 Гбайт (89%)
Аудио
Идентификатор : 1
Формат : MPEG Audio
Версия формата : Version 1
Профиль формата : Layer 3
Режим : Joint stereo
Идентификатор кодека : 55
Идентификатор кодека/Подсказка : MP3
Продолжительность : 1 ч. 45 м.
Вид битрейта : Постоянный
Битрейт : 192 Кбит/сек
Каналы : 2 канала
Частота : 48,0 КГц
Метод сжатия : С потерями
Размер потока : 145 Мбайт (10%)
Выравнивание : Соединение по промежуткам
Продолжительность промежутка : 24 мс. (0,58 видеокадр)
Скриншот c названием фильма Скриншоты Пример субтитров
Dialogue: 0,0:43:12.20,0:43:13.16,Default NSK,,0000,0000,0000,,Смотри.
Dialogue: 0,0:43:13.48,0:43:16.28,Default NSK,,0000,0000,0000,,В задаче говорится, что отец\N старше сына на 20 лет.
Dialogue: 0,0:43:16.32,0:43:18.52,Default NSK,,0000,0000,0000,,И в три раза старше его детей.
Dialogue: 0,0:43:18.56,0:43:22.20,Default NSK,,0000,0000,0000,,И задача в том, чтобы узнать сколько лет отцу.
Dialogue: 0,0:43:22.84,0:43:23.76,Default NSK,,0000,0000,0000,,Смотри.
Dialogue: 0,0:43:23.80,0:43:26.04,Default NSK,,0000,0000,0000,,За X берем возраст детей, так?
Dialogue: 0,0:43:26.08,0:43:27.40,Default NSK,,0000,0000,0000,,Составим уравнение.
Dialogue: 0,0:43:28.56,0:43:30.32,Default NSK,,0000,0000,0000,,Раз отец в три раза старше его детей.
Dialogue: 0,0:43:30.36,0:43:33.76,Default NSK,,0000,0000,0000,,3 раза это 3x, потому что 3 раза по x.
Dialogue: 0,0:43:35.84,0:43:38.32,Default NSK,,0000,0000,0000,,Теперь поменяем переменные. Плюс на минус.
Dialogue: 0,0:43:38.36,0:43:41.68,Default NSK,,0000,0000,0000,,Теперь у нас 3x - x.
Dialogue: 0,0:43:42.60,0:43:45.36,Default NSK,,0000,0000,0000,,3x - 1x сколько будет?
Dialogue: 0,0:43:45.40,0:43:46.12,Default NSK,,0000,0000,0000,,2.
Dialogue: 0,0:43:46.76,0:43:48.00,Default NSK,,0000,0000,0000,,2x.
Dialogue: 0,0:43:48.80,0:43:49.80,Default NSK,,0000,0000,0000,,А потом.
Dialogue: 0,0:43:49.84,0:43:52.92,Default NSK,,0000,0000,0000,,Берем 20 и делим на 2.
Dialogue: 0,0:43:54.56,0:43:55.64,Default NSK,,0000,0000,0000,,Равняется x.
Dialogue: 0,0:43:55.68,0:43:56.72,Default NSK,,0000,0000,0000,,20 разделить на 2?
Dialogue: 0,0:43:57.84,0:43:59.00,Default NSK,,0000,0000,0000,,- 10.\N- 10.
Dialogue: 0,0:43:59.52,0:44:00.40,Default NSK,,0000,0000,0000,,Значит ответ?
Dialogue: 0,0:44:00.44,0:44:01.32,Default NSK,,0000,0000,0000,,30.
Dialogue: 0,0:44:02.64,0:44:03.68,Default NSK,,0000,0000,0000,,Очень хорошо.
Dialogue: 0,0:44:05.00,0:44:07.72,Default NSK,,0000,0000,0000,,Мне не нравится математика.\N Можно я не буду ее проходить?
Dialogue: 0,0:44:07.76,0:44:09.04,Default NSK,,0000,0000,0000,,Не проходить математику?
Dialogue: 0,0:44:09.08,0:44:10.92,Default NSK,,0000,0000,0000,,Тогда как ты станешь врачом или инженером?
Dialogue: 0,0:44:10.96,0:44:12.26,Default NSK,,0000,0000,0000,,Я не хочу ими быть.
Dialogue: 0,0:44:13.00,0:44:14.04,Default NSK,,0000,0000,0000,,И чем хочешь заниматься?
Dialogue: 0,0:44:14.08,0:44:15.08,Default NSK,,0000,0000,0000,,Ловить рыбу.
Dialogue: 0,0:44:19.00,0:44:19.88,Default NSK,,0000,0000,0000,,Серьезно?
Dialogue: 0,0:44:20.40,0:44:22.56,Default NSK,,0000,0000,0000,,Да, мой отец рыбак. Мой дед рыбачил.
Dialogue: 0,0:44:26.76,0:44:30.88,Default NSK,,0000,0000,0000,,Чон, в мире столько вещей, \Nкоторыми ты бы мог заняться.
Dialogue: 0,0:44:31.52,0:44:34.12,Default NSK,,0000,0000,0000,,Ты еще ребенок, можешь подумать.
Dialogue: 0,0:44:35.00,0:44:37.12,Default NSK,,0000,0000,0000,,Давай, помоги мне стереть с доски.
Dialogue: 0,0:44:41.40,0:44:43.68,Default NSK,,0000,0000,0000,,Чон, можешь сделать для меня кое-что?
Dialogue: 0,0:44:44.96,0:44:46.80,Default NSK,,0000,0000,0000,,Не смотря ни на что...
Dialogue: 0,0:44:47.72,0:44:49.28,Default NSK,,0000,0000,0000,,Не бросай школу.
Dialogue: 0,0:44:53.36,0:44:54.35,Default NSK,,0000,0000,0000,,Только об этом прошу.
Dialogue: 0,0:44:58.56,0:44:59.52,Default NSK,,0000,0000,0000,,Обещаешь?
Dialogue: 0,0:45:00.20,0:45:01.00,Default NSK,,0000,0000,0000,,Да.
Скачать

Скачать торрент! Дневник учителя / Teacher\'s Diary / Kid Teung Wittaya (Нитиуат Таратон / Nithiwat Tharathorn) [2014, Таиланд, романтика, мелодрама, DVDRip] Sub Rus

Как скачивать? · Что такое торрент? · Рейтинг и ограничения

Сайт не распространяет и не хранит электронные версии произведений, а лишь предоставляет доступ к создаваемому пользователями каталогу ссылок на торрент-файлы, которые содержат только списки хеш-сумм

[Профиль] [ЛС]
Показать сообщения:    
Ответить на тему

Текущее время: Сегодня 17:14

Часовой пояс: GMT + 4



Вы не можете начинать темы
Вы не можете отвечать на сообщения
Вы не можете редактировать свои сообщения
Вы не можете удалять свои сообщения
Вы не можете голосовать в опросах
Вы не можете прикреплять файлы к сообщениям
Вы не можете скачивать файлы