Алфавитный убийца / The Alphabet Killer (Роб Шмидт / Rob Schmidt) [2008, США, триллер, драма, криминал, BDRemux 1080p] DVO (Интерфильм) + Sub Eng + Original Eng

Ответить на тему
 
Автор Сообщение

user ®

Стаж: 7 лет 7 месяцев

Сообщений: 20008

Пост Пост: #1 от 26-Окт-2014 20:30

[Цитировать]

Алфавитный убийца / The Alphabet Killer
Страна: США
Жанр: триллер, драма, криминал
Год выпуска: 2008
Продолжительность: 01:38:09
Перевод: Любительский (двухголосый закадровый) Интерфильм
Cубтитры: английские
Оригинальная аудиодорожка: английский
-
Режиссер: Роб Шмидт / Rob Schmidt
В ролях: Элиза Душку, Кэри Элвис, Тимоти Хаттон, Том Маллой, Майкл Айронсайд, Билл Моусли, Карл Ламбли, Брайан Сканнелл, Ларри Хэнкин, Джек МакГи
-
Описание: Фильм о серийном убийце по мотивам реальных событий в небольших городках штата Нью-Йорк.

P.S. За диск благодарность [url=http://***/forum/profile.php?mode=viewprofile&u=3304307]sid34[/url]!!!
Тип релиза: BDRemux 1080p
Контейнер: MKV
Видео: VC-1 / NTSC 16:9 / 1920x1080 (2,35:1) / 25709 kbps / 23,976 fps / 0.506 bit/pixel / Advanced@L3
Аудио 1: Russian / AC3 / 48 kHz / 5.1 Ch / 448kbps / 16 bit / DVO
Аудио 2: English / AC3 / 48 kHz / 5.1 Ch / 640 kbps / 16 bit / Original
Формат субтитров: softsub (SRT)
Навигация по главам: есть

Сэмпл MediaInfo
Общее
Уникальный идентификатор : 219902630293179859831001061875288736346 (0xA56FB4BFE59E7F07A224542616DD825A)
Полное имя : D:\The Alphabet Killer.2008.BDRemux.1080p.mkv
Формат : Matroska
Версия формата : Version 4 / Version 2
Размер файла : 18,4 Гбайт
Продолжительность : 1 ч. 38 м.
Общий поток : 26,8 Мбит/сек
Дата кодирования : UTC 2014-10-25 03:22:54
Программа кодирования : mkvmerge v7.3.0 ('Nouages') 64bit built on Oct 22 2014 18:53:34
Библиотека кодирования : libebml v1.3.0 + libmatroska v1.4.1
_STATISTICS_WRITING_APP : mkvmerge v7.3.0 ('Nouages') 64bit built on Oct 22 2014 18:53:34
_STATISTICS_WRITING_DATE_UTC : 2014-10-25 03:22:54
_STATISTICS_TAGS : BPS DURATION NUMBER_OF_FRAMES NUMBER_OF_BYTES
DURATION : 01:33:22.523000000
NUMBER_OF_FRAMES : 1098
NUMBER_OF_BYTES : 34934
Видео
Идентификатор : 1
Формат : VC-1
Профиль формата : Advanced@L3
Идентификатор кодека : V_MS/VFW/FOURCC / WVC1
Идентификатор кодека/Подсказка : Microsoft
Продолжительность : 1 ч. 38 м.
Битрейт : 25,2 Мбит/сек
Ширина : 1920 пикселей
Высота : 1080 пикселей
Соотношение сторон : 16:9
Режим частоты кадров : Постоянный
Частота кадров : 23,976 кадра/сек
Цветовое пространство : YUV
Субдискретизация насыщенности : 4:2:0
Битовая глубина : 8 бит
Тип развёртки : Прогрессивная
Метод сжатия : С потерями
Бит/(Пиксели*Кадры) : 0.506
Размер потока : 17,3 Гбайт (94%)
Язык : English
Default : Да
Forced : Нет
Аудио #1
Идентификатор : 2
Формат : AC-3
Формат/Информация : Audio Coding 3
Расширение режима : CM (complete main)
Параметр Endianness формата : Big
Идентификатор кодека : A_AC3
Продолжительность : 1 ч. 38 м.
Вид битрейта : Постоянный
Битрейт : 448 Кбит/сек
Каналы : 6 каналов
Расположение каналов : Front: L C R, Side: L R, LFE
Частота : 48,0 КГц
Битовая глубина : 16 бит
Метод сжатия : С потерями
Размер потока : 315 Мбайт (2%)
Заголовок : DVO / Интерфильм
Язык : Russian
Default : Да
Forced : Нет
Аудио #2
Идентификатор : 3
Формат : AC-3
Формат/Информация : Audio Coding 3
Расширение режима : CM (complete main)
Параметр Endianness формата : Big
Идентификатор кодека : A_AC3
Продолжительность : 1 ч. 38 м.
Вид битрейта : Постоянный
Битрейт : 640 Кбит/сек
Каналы : 6 каналов
Расположение каналов : Front: L C R, Side: L R, LFE
Частота : 48,0 КГц
Битовая глубина : 16 бит
Метод сжатия : С потерями
Размер потока : 449 Мбайт (2%)
Заголовок : Original
Язык : English
Default : Нет
Forced : Нет
Текст
Идентификатор : 4
Формат : UTF-8
Идентификатор кодека : S_TEXT/UTF8
Идентификатор кодека/Информация : UTF-8 Plain Text
Заголовок : Original
Язык : English
Default : Нет
Forced : Нет
Меню
00:00:00.000 : en:Main Titles
00:10:02.560 : en:War Room
00:20:03.160 : en:Grieving Parents
00:30:03.760 : en:Act of Desperation
00:40:04.360 : en:Ignoring the Ghosts
00:50:04.960 : en:Another Victim
01:00:05.560 : en:Task Force
01:10:06.160 : en:Under Suspicion
01:20:06.760 : en:The Third Victim
01:30:07.360 : en:Hostage Situation
Скриншоты
Скачать

Скачать торрент!

Как скачивать? · Что такое торрент? · Рейтинг и ограничения

Сайт не распространяет и не хранит электронные версии произведений, а лишь предоставляет доступ к создаваемому пользователями каталогу ссылок на торрент-файлы, которые содержат только списки хеш-сумм

[Профиль] [ЛС]
Показать сообщения:    
Ответить на тему

Текущее время: Сегодня 20:38

Часовой пояс: GMT + 4



Вы не можете начинать темы
Вы не можете отвечать на сообщения
Вы не можете редактировать свои сообщения
Вы не можете удалять свои сообщения
Вы не можете голосовать в опросах
Вы не можете прикреплять файлы к сообщениям
Вы не можете скачивать файлы