Одержимость Майкла Кинга / The Possession of Michael King (Дэвид Юнг / David Jung) [2014, США, ужасы, HDRip] AVO (А.Дольский)

Ответить на тему
 
Автор Сообщение

user ®

Стаж: 7 лет 7 месяцев

Сообщений: 20008

Пост Пост: #1 от 26-Окт-2014 20:30

[Цитировать]

Одержимость Майкла Кинга / The Possession of Michael King


Страна: США
Жанр: ужасы
Год выпуска: 2014
Продолжительность: 01:23:20
Перевод: Авторский (одноголосый) [А.Дольский]
Cубтитры: нет
Режиссер: Дэвид Юнг / David Jung
В ролях:Шэйн Джонсон, Элла Андерсон, Кара Пифко, Кристал Альварез, Томас Арана, Люк Бэйнс, Дейл Дикки, Каллен Дуглас, Майкл Рэй Эскамиллья, Рамона Дж. Фаррингтон
Описание: Главный герой фильма — режиссер-документалист, который не верит ни в Бога, ни в дьявола. Когда умирает его жена, он решает снять фильм о религии и спиритуализме и доказать, что вся мистика — это просто выдумка. В процессе съемок он встречается с демонологами, некромантами и оккультистами, которые испытывают на нем самые темные и сильные заклятия. Эти обряды пробуждают неведомые и безудержные силы зла…
Сэмпл
Качество: HDRip
Видео: 720x400 (1.80:1), 23.976 fps, XviD build 50 ~2042 kbps avg, 0.29 bit/pixel
Аудио: 48 kHz, AC3 Dolby Digital, 3/2 (L,C,R,l,r) + LFE ch, ~448 kbps
[url=http://***/forum/viewtopic.php?t=4848673]Рип на 749 МВ[/url]

MI
General
Complete name : C:\Users\Вячеслав\Downloads\Одержимость Майкла Кинга.2014.HDRip.avi
Format : AVI
Format/Info : Audio Video Interleave
File size : 1.46 GiB
Duration : 1h 23mn
Overall bit rate : 2 500 Kbps
Writing application : VirtualDubMod 1.5.10.3 | www.virtualdub-fr.org || (build 2550/release)
Writing library : VirtualDubMod build 2550/release
Video
ID : 0
Format : MPEG-4 Visual
Format profile : Advanced Simple@L5
Format settings, BVOP : 2
Format settings, QPel : No
Format settings, GMC : No warppoints
Format settings, Matrix : Default (H.263)
Codec ID : XVID
Codec ID/Hint : XviD
Duration : 1h 23mn
Bit rate : 2 043 Kbps
Width : 720 pixels
Height : 400 pixels
Display aspect ratio : 16:9
Frame rate : 23.976 fps
Color space : YUV
Chroma subsampling : 4:2:0
Bit depth : 8 bits
Scan type : Progressive
Compression mode : Lossy
Bits/(Pixel*Frame) : 0.296
Stream size : 1.19 GiB (82%)
Writing library : XviD 1.2.1 (UTC 2008-12-04)
Audio
ID : 1
Format : AC-3
Format/Info : Audio Coding 3
Mode extension : CM (complete main)
Format settings, Endianness : Big
Codec ID : 2000
Duration : 1h 23mn
Bit rate mode : Constant
Bit rate : 448 Kbps
Channel(s) : 6 channels
Channel positions : Front: L C R, Side: L R, LFE
Sampling rate : 48.0 KHz
Bit depth : 16 bits
Compression mode : Lossy
Stream size : 267 MiB (18%)
Alignment : Split accross interleaves
Interleave, duration : 42 ms (1.00 video frame)
Interleave, preload duration : 500 ms
Скриншоты
Скачать

Скачать торрент!

Как скачивать? · Что такое торрент? · Рейтинг и ограничения

Сайт не распространяет и не хранит электронные версии произведений, а лишь предоставляет доступ к создаваемому пользователями каталогу ссылок на торрент-файлы, которые содержат только списки хеш-сумм

[Профиль] [ЛС]
Показать сообщения:    
Ответить на тему

Текущее время: Сегодня 06:58

Часовой пояс: GMT + 4



Вы не можете начинать темы
Вы не можете отвечать на сообщения
Вы не можете редактировать свои сообщения
Вы не можете удалять свои сообщения
Вы не можете голосовать в опросах
Вы не можете прикреплять файлы к сообщениям
Вы не можете скачивать файлы