Семейка миссис Браун в кино / Mrs. Brown\'s Boys D\'Movie (Бен Келлетт / Ben Kellett) [2014, Ирландия, Великобритания, комедия, DVDRip] Sub Rus + Original Eng

Ответить на тему
 
Автор Сообщение

user ®

Стаж: 7 лет 7 месяцев

Сообщений: 20008

Пост Пост: #1 от 26-Окт-2014 20:30

[Цитировать]

Семейка миссис Браун в кино / Mrs. Brown's Boys D'Movie
Страна: Ирландия, Великобритания
Жанр: комедия
Год выпуска: 2014
Продолжительность: 01:34:19
Перевод: Субтитры (М.Васильев)
Cубтитры: русские
Оригинальная аудиодорожка: английский
Режиссер: Бен Келлетт / Ben Kellett
Бюджет 3 миллиона евро
Кассовые сборы 30 миллионов евро
В ролях: Брендан О’Кэрролл, Дженнифер Гибни, Дермот О’Нилл, Эйлиш О’Кэрролл, Аманда Вудс, Рори Кауэн, Пэт Шилдс
Описание: Полнометражный фильм, снятый по мотивам суперпопулярного ирландского ситкома "Семейка миссис Браун", рассказывающего о жизни дружной, но немножко взбалмошной семьи Браунов, где всем верховодит веселая вдова - миссис Агнес Браун.
На этот раз Браунам приходится выяснять отношения с налоговой инспекцией, коррумпированными чиновниками и русской мафией.
Доп. информация: Фильм 3 недели был лидером проката в Ирландии, пока его не сдвинули на второе место «Трансформеры».
За три года существования ситком «Семейка миссис Браун» побил все рекорды по популярности, стал самым успешным шоу в истории ирландского ТВ и собрал целый склад наград "зрительских симпатий". Так что, появление полнометражки стало вполне закономерным событием.
Критики, которые (в отличие от обычных зрителей) никогда не любили это шоу, ругают сериал (и фильм) за старомодность и шаблонность.
Соглашаться с ними или нет — дело каждого.
Фильм посвящается всем ценителям ситкомов, фанатам абсурдистского юмора и поклонникам ирландского акцента
Чтобы поднять настроение и забыть о проблемах, ешьте шоколад и смотрите кино!
Оригинальный ситком можно посмотреть [url=http://***/forum/viewtopic.php?t=4755431]вот тут[/url]
А еще у нас есть новогодние спецвыпуски шоу [url=http://***/forum/viewtopic.php?t=4631125]за 2013 год[/url]
Сэмпл

Качество видео: DVDRip
Формат видео: AVI
Видео: 896 Kbps, 640x352, (16:9), 23 976 fps, MPEG 4 XviD
Аудио: 128 Kbps, 48.0 KHz, 2 ch, MP 3
Формат субтитров: softsub (SRT)
MediaInfo
General
Complete name : E:\браун\Mrs.Browns.Boys.D.Movie.2014.BRRip.XViD-juggs[ETRG].avi
Format : AVI
Format/Info : Audio Video Interleave
File size : 697 MiB
Duration : 1h 34mn
Overall bit rate : 1 034 Kbps
Video
ID : 0
Format : MPEG-4 Visual
Format profile : Advanced Simple@L5
Format settings, BVOP : 2
Format settings, QPel : No
Format settings, GMC : No warppoints
Format settings, Matrix : Default (H.263)
Codec ID : XVID
Codec ID/Hint : XviD
Duration : 1h 34mn
Bit rate : 896 Kbps
Width : 640 pixels
Height : 352 pixels
Display aspect ratio : 16:9
Frame rate : 23.976 fps
Color space : YUV
Chroma subsampling : 4:2:0
Bit depth : 8 bits
Scan type : Progressive
Compression mode : Lossy
Bits/(Pixel*Frame) : 0.166
Stream size : 605 MiB (87%)
Writing library : XviD 65
Audio
ID : 1
Format : MPEG Audio
Format version : Version 1
Format profile : Layer 3
Mode : Joint stereo
Mode extension : MS Stereo
Codec ID : 55
Codec ID/Hint : MP3
Duration : 1h 34mn
Bit rate mode : Constant
Bit rate : 128 Kbps
Channel(s) : 2 channels
Sampling rate : 48.0 KHz
Compression mode : Lossy
Stream size : 86.4 MiB (12%)
Alignment : Split accross interleaves
Interleave, duration : 42 ms (1.00 video frame)
Interleave, preload duration : 500 ms
Writing library : LAME3.98
Скриншот c названием фильма Скриншоты Титры
1
00:01:45,806 --> 00:01:48,878
Тебе так идет эта форма
2
00:01:51,244 --> 00:01:53,485
А он заряжен?
3
00:02:09,930 --> 00:02:12,069
Не так быстро
4
00:02:12,132 --> 00:02:13,941
Еще рано
5
00:02:14,935 --> 00:02:16,744
Что?
6
00:02:53,674 --> 00:02:55,347
Кто?
7
00:02:58,045 --> 00:02:59,718
Боже! Опаздываю!
8
00:03:08,221 --> 00:03:09,962
Блин
9
00:03:13,060 --> 00:03:15,631
Привет, времени нет.
Я опаздываю
10
00:03:16,797 --> 00:03:18,470
Боже ж ты мой
11
00:03:21,068 --> 00:03:22,911
Боже
12
00:03:24,871 --> 00:03:26,544
Блин
13
00:03:29,242 --> 00:03:30,915
Залазь
14
00:03:40,187 --> 00:03:43,862
Ну, вот.
Вроде успела
15
00:03:56,670 --> 00:03:58,377
Подождите ка
16
00:04:03,944 --> 00:04:05,719
Что-то не так
17
00:04:07,214 --> 00:04:08,887
Вот так
18
00:04:10,717 --> 00:04:12,390
Это кино!
19
00:04:16,456 --> 00:04:18,458
Винни!
20
00:04:19,292 --> 00:04:22,296
Привет, Толстушка Энни
21
00:04:22,395 --> 00:04:25,069
А морковь сегодня будет
такая же дорогая, как и вчера?
22
00:04:25,132 --> 00:04:27,237
Если да, то пусть оптовики
23
00:04:27,300 --> 00:04:30,144
засунут ее себе в задницу
24
00:04:40,313 --> 00:04:43,783
У дочери новая работа.
В офисе
Скачать

Скачать торрент!

Как скачивать? · Что такое торрент? · Рейтинг и ограничения

Сайт не распространяет и не хранит электронные версии произведений, а лишь предоставляет доступ к создаваемому пользователями каталогу ссылок на торрент-файлы, которые содержат только списки хеш-сумм

[Профиль] [ЛС]
Показать сообщения:    
Ответить на тему

Текущее время: Сегодня 05:57

Часовой пояс: GMT + 4



Вы не можете начинать темы
Вы не можете отвечать на сообщения
Вы не можете редактировать свои сообщения
Вы не можете удалять свои сообщения
Вы не можете голосовать в опросах
Вы не можете прикреплять файлы к сообщениям
Вы не можете скачивать файлы