Черепашки-ниндзя / Teenage Mutant Ninja Turtles (Джонатан Либесман / Jonathan Liebesman) [2014, США, фантастика, фэнтези, боевик, комедия, приключения, HDTVRip] Dub (Звук с TS) + Original Eng

Ответить на тему
 
Автор Сообщение

user ®

Стаж: 7 лет 7 месяцев

Сообщений: 20008

Пост Пост: #1 от 26-Окт-2014 20:30

[Цитировать]

Черепашки-ниндзя / Teenage Mutant Ninja Turtles- -Страна: США / Gama Entertainment Partners
Жанр: фантастика, фэнтези, боевик, комедия, приключения
Год выпуска: 2014
Продолжительность: 01:33:52
Перевод: Профессиональный (дублированный) Звук с TS
Cубтитры: нет
Оригинальная аудиодорожка: английский-Режиссер: Джонатан Либесман / Jonathan Liebesman-В ролях: Меган Фокс, Уилл Арнетт, Уильям Фихтнер, Алан Ричсон, Ноэль Фишер, Пит Пложек, Джонни Ноксвил, Джереми Ховард, Дэнни Вудберн, Тони Шэлуб-Описание: Город нуждается в героях. Тьма окутала Нью-Йорк в виде Шреддера и его зловещего Клана Футов, у которого имеется железный контроль над всеми, от полицейских до политиков. Будущее выглядит мрачным, пока из канализации не поднимается и не раскрывает своё предназначение четвёрка отверженных братьев — Черепашки-ниндзя. Черепашки должны работать вместе с бесстрашным репортёром Эйприл и её саркастическим оператором Верном Фенвиком, чтобы спасти город и разгадать дьявольский план Шреддера.-Доп. информация: http://www.imdb.com/title/tt1291150/
http://www.kinopoisk.ru/film/461206/-Сэмпл: http://multi-up.com/1008441-Качество видео: HDTVRip
Формат видео: AVI
Видео: 720x304 (2.37:1), 23.976 fps, XviD MPEG-4 ~1593 kbps avg, 0.30 bit/pixel
Аудио: 44.100 kHz, MPEG Layer 3, 2 ch, ~128.00 kbps avg - Rus
Аудио 2: 48 kHz, MPEG Layer 3, 2 ch, ~192.00 kbps avg - Eng
MediaInfo
General
Complete name : D:\Cherepashki.2014.Dt.HDTVRip.1400MB.avi
Format : AVI
Format/Info : Audio Video Interleave
File size : 1.37 GiB
Duration : 1h 41mn
Overall bit rate : 1 932 Kbps
Writing application : VirtualDubMod 1.5.10.2 (build 2540/release)
Writing library : VirtualDubMod build 2540/release
Video
ID : 0
Format : MPEG-4 Visual
Format profile : Simple@L5
Format settings, BVOP : No
Format settings, QPel : No
Format settings, GMC : No warppoints
Format settings, Matrix : Default (H.263)
Codec ID : XVID
Codec ID/Hint : XviD
Duration : 1h 41mn
Bit rate : 1 595 Kbps
Width : 720 pixels
Height : 304 pixels
Display aspect ratio : 2.35:1
Frame rate : 23.976 fps
Color space : YUV
Chroma subsampling : 4:2:0
Bit depth : 8 bits
Scan type : Progressive
Compression mode : Lossy
Bits/(Pixel*Frame) : 0.304
Stream size : 1.13 GiB (83%)
Writing library : Lavc56.1.100
Audio #1
ID : 1
Format : MPEG Audio
Format version : Version 1
Format profile : Layer 3
Codec ID : 55
Codec ID/Hint : MP3
Duration : 1h 41mn
Bit rate mode : Constant
Bit rate : 128 Kbps
Channel(s) : 2 channels
Sampling rate : 44.1 KHz
Compression mode : Lossy
Stream size : 92.7 MiB (7%)
Alignment : Split accross interleaves
Interleave, duration : 42 ms (1.00 video frame)
Interleave, preload duration : 500 ms
Audio #2
ID : 2
Format : MPEG Audio
Format version : Version 1
Format profile : Layer 3
Mode : Joint stereo
Codec ID : 55
Codec ID/Hint : MP3
Duration : 1h 41mn
Bit rate mode : Constant
Bit rate : 192 Kbps
Channel(s) : 2 channels
Sampling rate : 48.0 KHz
Compression mode : Lossy
Stream size : 139 MiB (10%)
Alignment : Aligned on interleaves
Interleave, duration : 24 ms (0.58 video frame)
Interleave, preload duration : 504 ms
Writing library : LAME3.99.5
Скриншот с названием фильма Скриншоты
Скачать

Скачать торрент!

Как скачивать? · Что такое торрент? · Рейтинг и ограничения

Сайт не распространяет и не хранит электронные версии произведений, а лишь предоставляет доступ к создаваемому пользователями каталогу ссылок на торрент-файлы, которые содержат только списки хеш-сумм

[Профиль] [ЛС]
Показать сообщения:    
Ответить на тему

Текущее время: Сегодня 07:57

Часовой пояс: GMT + 4



Вы не можете начинать темы
Вы не можете отвечать на сообщения
Вы не можете редактировать свои сообщения
Вы не можете удалять свои сообщения
Вы не можете голосовать в опросах
Вы не можете прикреплять файлы к сообщениям
Вы не можете скачивать файлы