Затерянный лагерь / Camp Nowhere (Джонатан Принц / Jonathan Prince) [1994, США, комедия, приключения, семейный, HDTVRip 720p] DVO (Видеосервис) + AVO (Вартан Дохалов) + Sub Rus, Eng + Original Eng

Ответить на тему
 
Автор Сообщение

user ®

Стаж: 7 лет 7 месяцев

Сообщений: 20008

Пост Пост: #1 от 25-Окт-2014 15:55

[Цитировать]

Затерянный лагерь / Camp Nowhere
Страна: США
Жанр: комедия, приключения, семейный
Год выпуска: 1994
Продолжительность: 01:35:36
Перевод 1: Профессиональный (двухголосый закадровый) Видеосервис
Перевод 2: Авторский (одноголосый закадровый) Вартан Дохалов
Cубтитры: русские
Оригинальная аудиодорожка: английский
Режиссер: Джонатан Принц / Jonathan Prince
В ролях: Кристофер Ллойд, Джонатан Джексон, Уэнди Маккена, М. Эммет Уолш, Джон Путч, Питер Сколари, Роми Уиндсор, Джошуа Гибран Мэйвизер, Эндрю Кигэн, Девин Отвэй...
Описание: Летний лагерь — отдых только с первого взгляда. Сами дети имеют на этот счет особое мнение, поэтому, когда Моррис Химмель узнает, что ему вместе с друзьями предстоит провести лето на таком «отдыхе», он решает действовать.
Сообща компания решается на веселую авантюру: они организуют свой собственный лагерь, райский уголок без родителей с морем развлечений. Им удается убедить доверчивых мам и пап в существовании мифического уголка детского отдыха и даже потратить их деньги на это. Однако впереди друзей ждет маленькая проблема, грозящая обернуться большими неприятностями: грядет родительский день, когда обман может легко раскрыться.
Сэмпл: http://multi-up.com/1008207
Тип релиза: HDTVRip 720p
Контейнер: MKV
Видео: 1280x692 (1.85:1), 23.976 fps, AVC, ~7800 Kbps, 0.367 bits/pixel
Аудио 1: Russian, 48.0 KHz, AC3, 2 ch, 192 Kbps - Видеосервис
Аудио 2: Russian, 48.0 KHz, AC3, 2 ch, 192 Kbps - Вартан Дохалов
Аудио 3: English, 48.0 KHz, AC3, 2 ch, 192 Kbps

Сравнение
[url=http://***/forum/viewtopic.php?t=3887392]http://***/forum/viewtopic.php?t=3887392[/url]
http://screenshotcomparison.com/comparison/97179/picture:0
MediaInfo
General
Unique ID : 212932315588778648224222365476703486321 (0xA03145B39E6486A5B006F93BF7B8C171)
Complete name : C:\Camp Nowhere.mkv
Format : Matroska
Format version : Version 4 / Version 2
File size : 5.59 GiB
Duration : 1h 35mn
Overall bit rate : 8 376 Kbps
Encoded date : UTC 2014-10-23 06:02:39
Writing application : mkvmerge v7.2.0 ('On Every Street') 64bit built on Sep 13 2014 15:52:10
Writing library : libebml v1.3.0 + libmatroska v1.4.1
DURATION : 01:35:35.936000000
NUMBER_OF_FRAMES : 179248
NUMBER_OF_BYTES : 137662464
_STATISTICS_WRITING_APP : mkvmerge v7.2.0 ('On Every Street') 64bit built on Sep 13 2014 15:52:10
_STATISTICS_WRITING_DATE_UTC : 2014-10-23 06:02:39
_STATISTICS_TAGS : BPS DURATION NUMBER_OF_FRAMES NUMBER_OF_BYTES
Video
ID : 1
Format : AVC
Format/Info : Advanced Video Codec
Format profile : High@L4.1
Format settings, CABAC : Yes
Format settings, ReFrames : 9 frames
Codec ID : V_MPEG4/ISO/AVC
Duration : 1h 35mn
Bit rate : 7 800 Kbps
Width : 1 280 pixels
Height : 692 pixels
Display aspect ratio : 1.85:1
Frame rate mode : Constant
Frame rate : 23.976 fps
Color space : YUV
Chroma subsampling : 4:2:0
Bit depth : 8 bits
Scan type : Progressive
Bits/(Pixel*Frame) : 0.367
Stream size : 5.10 GiB (91%)
Writing library : x264 core 133 r2334 a3ac64b
Encoding settings : cabac=1 / ref=9 / deblock=1:-3:-3 / analyse=0x3:0x133 / me=tesa / subme=11 / psy=1 / psy_rd=1.10:0.00 / mixed_ref=1 / me_range=32 / chroma_me=1 / trellis=2 / 8x8dct=1 / cqm=0 / deadzone=21,11 / fast_pskip=0 / chroma_qp_offset=-2 / threads=12 / lookahead_threads=2 / sliced_threads=0 / nr=0 / decimate=0 / interlaced=0 / bluray_compat=0 / constrained_intra=0 / bframes=8 / b_pyramid=2 / b_adapt=2 / b_bias=0 / direct=3 / weightb=1 / open_gop=0 / weightp=2 / keyint=250 / keyint_min=23 / scenecut=40 / intra_refresh=0 / rc=2pass / mbtree=0 / bitrate=7800 / ratetol=1.0 / qcomp=0.60 / qpmin=0 / qpmax=69 / qpstep=4 / cplxblur=20.0 / qblur=0.5 / ip_ratio=1.40 / pb_ratio=1.30 / aq=1:0.80
Language : English
Default : Yes
Forced : No
DURATION : 01:35:35.897000000
NUMBER_OF_FRAMES : 137524
NUMBER_OF_BYTES : 5590422387
_STATISTICS_WRITING_APP : mkvmerge v7.2.0 ('On Every Street') 64bit built on Sep 13 2014 15:52:10
_STATISTICS_WRITING_DATE_UTC : 2014-10-23 06:02:39
_STATISTICS_TAGS : BPS DURATION NUMBER_OF_FRAMES NUMBER_OF_BYTES
Audio #1
ID : 2
Format : AC-3
Format/Info : Audio Coding 3
Mode extension : CM (complete main)
Format settings, Endianness : Big
Codec ID : A_AC3
Duration : 1h 35mn
Bit rate mode : Constant
Bit rate : 192 Kbps
Channel(s) : 2 channels
Channel positions : Front: L R
Sampling rate : 48.0 KHz
Bit depth : 16 bits
Compression mode : Lossy
Stream size : 131 MiB (2%)
Title : Видеосервис
Language : Russian
Default : Yes
Forced : No
Audio #2
ID : 3
Format : AC-3
Format/Info : Audio Coding 3
Mode extension : CM (complete main)
Format settings, Endianness : Big
Codec ID : A_AC3
Duration : 1h 35mn
Bit rate mode : Constant
Bit rate : 192 Kbps
Channel(s) : 2 channels
Channel positions : Front: L R
Sampling rate : 48.0 KHz
Bit depth : 16 bits
Compression mode : Lossy
Stream size : 131 MiB (2%)
Title : Вартан Дохалов
Language : Russian
Default : No
Forced : No
Audio #3
ID : 4
Format : AC-3
Format/Info : Audio Coding 3
Mode extension : CM (complete main)
Format settings, Endianness : Big
Codec ID : A_AC3
Duration : 1h 35mn
Bit rate mode : Constant
Bit rate : 192 Kbps
Channel(s) : 2 channels
Channel positions : Front: L R
Sampling rate : 48.0 KHz
Bit depth : 16 bits
Compression mode : Lossy
Stream size : 131 MiB (2%)
Language : English
Default : No
Forced : No
Text #1
ID : 5
Format : UTF-8
Codec ID : S_TEXT/UTF8
Codec ID/Info : UTF-8 Plain Text
Language : Russian
Default : No
Forced : No
Text #2
ID : 6
Format : UTF-8
Codec ID : S_TEXT/UTF8
Codec ID/Info : UTF-8 Plain Text
Language : English
Default : No
Forced : No
Menu
00:00:00.000 : en:00:00:00.000
00:05:33.250 : en:00:05:33.250
00:09:45.543 : en:00:09:45.543
00:16:52.511 : en:00:16:52.511
00:22:27.096 : en:00:22:27.096
00:25:54.219 : en:00:25:54.219
00:31:29.471 : en:00:31:29.471
00:37:46.556 : en:00:37:46.556
00:42:10.111 : en:00:42:10.111
00:50:21.977 : en:00:50:21.977
00:57:00.208 : en:00:57:00.208
01:03:49.034 : en:01:03:49.034
01:09:24.786 : en:01:09:24.786
01:15:55.509 : en:01:15:55.509
01:22:05.212 : en:01:22:05.212
Скриншоты
Скачать

Скачать торрент!

Как скачивать? · Что такое торрент? · Рейтинг и ограничения

Сайт не распространяет и не хранит электронные версии произведений, а лишь предоставляет доступ к создаваемому пользователями каталогу ссылок на торрент-файлы, которые содержат только списки хеш-сумм

[Профиль] [ЛС]
Показать сообщения:    
Ответить на тему

Текущее время: Сегодня 10:50

Часовой пояс: GMT + 4



Вы не можете начинать темы
Вы не можете отвечать на сообщения
Вы не можете редактировать свои сообщения
Вы не можете удалять свои сообщения
Вы не можете голосовать в опросах
Вы не можете прикреплять файлы к сообщениям
Вы не можете скачивать файлы