Непрощенный / Unforgiven / Yurusarezaru mono (Ли Сан Иль / Lee Sang Il) [2013, Япония, драма, HDRip] VO [BadCatStudio]

Ответить на тему
 
Автор Сообщение

user ®

Стаж: 13 лет

Сообщений: 15071

Пост Пост: #1 от 25-Окт-2014 09:35

[Цитировать]

Непрощенный / Unforgiven / Yurusarezaru mono- -Страна: Япония
Жанр: драма
Год выпуска: 2013
Продолжительность: 02:15:45-Перевод: Одноголосый закадровый [BadCatStudio]-Cубтитры: нет
Оригинальная аудиодорожка: нет
Режиссер: Ли Сан Иль / Lee Sang Il
В ролях: Кен Ватанабэ, Дзюн Кунимура, Сиори Куцуна, Юя Ягира, Коити Сато, Эйко Койке...
Описание: Ремейк фильма Клинта Иствуда 1992г. События происходят в Хоккайдо, Япония, в 1880-х годах. Дзюбэй Камата, который поддерживает сторону правительства сегуната Эдо, убивает многих людей. Его имя печально известно в Киото. Но, когда битва при Горьокаку должна вот-вот закончиться, Дзюбэй исчезает. 10 лет спустя Дзюбэй живет со своими детьми. Он едва сводит концы с концами. Его жена умерла, и он решил никогда больше не браться за меч, но нищета не оставляет ему выбора…
Релиз от -
Сэмпл: http://multi-up.com/1008349
Качество видео: HDRip
Формат видео: AVI
Видео: MPEG-4 Visual at 1344 Кбит/сек; 720 x 304 (2.368) at 23.976 fps
Аудио: AC-3 at 192 Кбит/сек; 2 канала, 48,0 КГц
Автор -
MediaInfo
Общее
Полное имя : D:\Фильмы\Азиатские\Непрощенный\Unforgiven.2013.HDRip.XviD.1400MB. rip by [Assassin's Creed].avi
Формат : AVI
Формат/Информация : Audio Video Interleave
Размер файла : 1,47 Гбайт
Продолжительность : 2 ч. 15 м.
Общий поток : 1545 Кбит/сек
Программа кодирования : VirtualDubMod 1.5.10.2 (build 2540/release)
Библиотека кодирования : VirtualDubMod build 2540/release
Видео
Идентификатор : 0
Формат : MPEG-4 Visual
Профиль формата : Advanced Simple@L5
Параметр BVOP формата : 1
Параметр QPel формата : Нет
Параметр GMC формата : Без точки перехода
Параметр матрицы формата : Default (MPEG)
Идентификатор кодека : XVID
Идентификатор кодека/Подсказка : XviD
Продолжительность : 2 ч. 15 м.
Битрейт : 1344 Кбит/сек
Ширина : 720 пикселей
Высота : 304 пикселя
Соотношение сторон : 2,35:1
Частота кадров : 23,976 кадра/сек
Цветовое пространство : YUV
Субдискретизация насыщенности : 4:2:0
Битовая глубина : 8 бит
Тип развёртки : Прогрессивная
Метод сжатия : С потерями
Бит/(Пиксели*Кадры) : 0.256
Размер потока : 1,27 Гбайт (87%)
Библиотека кодирования : XviD 1.2.1 (UTC 2008-12-04)
Аудио
Идентификатор : 1
Формат : AC-3
Формат/Информация : Audio Coding 3
Расширение режима : CM (complete main)
Параметр Endianness формата : Big
Идентификатор кодека : 2000
Продолжительность : 2 ч. 15 м.
Вид битрейта : Постоянный
Битрейт : 192 Кбит/сек
Каналы : 2 канала
Расположение каналов : Front: L R
Частота : 48,0 КГц
Битовая глубина : 16 бит
Метод сжатия : С потерями
Размер потока : 186 Мбайт (12%)
Выравнивание : Разделение по промежуткам
Продолжительность промежутка : 42 мс. (1,00 видеокадр)
Время предзагрузки промежутка : 500 мс.
Скриншот c названием фильма Скриншоты
Скачать

Скачать торрент! Непрощенный / Unforgiven / Yurusarezaru mono (Ли Сан Иль / Lee Sang Il) [2013, Япония, драма, HDRip] VO [BadCatStudio]

Как скачивать? · Что такое торрент? · Рейтинг и ограничения

Сайт не распространяет и не хранит электронные версии произведений, а лишь предоставляет доступ к создаваемому пользователями каталогу ссылок на торрент-файлы, которые содержат только списки хеш-сумм

[Профиль] [ЛС]
Показать сообщения:    
Ответить на тему

Текущее время: Сегодня 16:16

Часовой пояс: GMT + 4



Вы не можете начинать темы
Вы не можете отвечать на сообщения
Вы не можете редактировать свои сообщения
Вы не можете удалять свои сообщения
Вы не можете голосовать в опросах
Вы не можете прикреплять файлы к сообщениям
Вы не можете скачивать файлы