Бросающие вызов додзё / Dojo Yaburi (Утикава Сэйитиро / Uchikawa Seiichiro) [1964, Япония, дзидай-гэки, исторический боевик, DVDRip] VO (Andi) + Sub Rus Eng

Ответить на тему
 
Автор Сообщение

user ®

Стаж: 13 лет

Сообщений: 15071

Пост Пост: #1 от 25-Окт-2014 06:25

[Цитировать]

Бросающие вызов додзё / Dojo Yaburi
Страна: Япония
Жанр: дзидай-гэки, исторический боевик
Год выпуска: 1964
Продолжительность: 01:31:34
Перевод: Одноголосый закадровый Andi
Cубтитры: русские, английские
Оригинальная аудиодорожка: японский
Режиссер: Утикава Сэйитиро / Uchikawa Seiichiro
В ролях: Нагато Исаму(Nagato Isamu), Танба Тэцуро(Tanba Tetsuro), Баисё Тиэко(Baisho Chieko), Ивасита Сима(Iwashita Shima), Тонояма Тайдзи(Tonoyama Taiji), Хамамура Дзюн(Hamamura Jun), Уэда Китидзиро(Ueda Kichijiro)
Описание: Молодой самурай Исикава Хатиэмон похищает дочь советника своего клана, не пожелавшую становиться любовницей князя, и сбегает вместе с ней в соседний округ. По следам беглецов отправляется группа преследователей с целью убить предателя и вернуть беглянку. Вынужденный скрываться под чужим именем и оставшийся без средств к существованию, Хатиэмон зарабатывает на жизнь, вызывая на поединки за денежное вознаграждение мастеров различных школ владения мечом. На этом поприще он сталкивается с ронином Комуро Тотэваки (роль которого исполнил Танба Тэцуро), также специализирующимся на поединках за деньги. Дуэт Нагато-Танба получился весьма удачным, показав двух абсолютно разных по темпераменту героев, но обладающих одинаково сильными характерами. В том же году с этой парой актеров было снято продолжение фильма.
Доп. информация: за предоставленное видео большое спасибо [url=http://***/forum/profile.php?mode=viewprofile&u=6762455]teko[/url]
Сэмпл: http://multi-up.com/1008253
Качество видео: DVDRip
Формат видео: AVI
Видео: 704*304, 1 881 Kbps, 23.976 fps
Аудио: AC-3, 192 Kbps, 2Ch, 48.0 KHz-русский
Аудио 2: AC-3, 192 Kbps, 2Ch, 48.0 KHz-японский
MediaInfo
General
Complete name : L:\VO Andi\Dojo Yaburi (VO Andi)\Dojo Yaburi.avi
Format : AVI
Format/Info : Audio Video Interleave
File size : 1.46 GiB
Duration : 1h 31mn
Overall bit rate : 2 279 Kbps
Writing application : VirtualDubMod 1.5.10.2 (build 2540/release)
Writing library : VirtualDubMod build 2540/release
Video
ID : 0
Format : MPEG-4 Visual
Format profile : Advanced Simple@L5
Format settings, BVOP : 1
Format settings, QPel : No
Format settings, GMC : No warppoints
Format settings, Matrix : Custom
Codec ID : XVID
Codec ID/Hint : XviD
Duration : 1h 31mn
Bit rate : 1 881 Kbps
Width : 704 pixels
Height : 304 pixels
Display aspect ratio : 2.35:1
Frame rate : 23.976 fps
Color space : YUV
Chroma subsampling : 4:2:0
Bit depth : 8 bits
Scan type : Progressive
Compression mode : Lossy
Bits/(Pixel*Frame) : 0.367
Stream size : 1.20 GiB (83%)
Writing library : XviD 73
Audio #1
ID : 1
Format : AC-3
Format/Info : Audio Coding 3
Mode extension : CM (complete main)
Format settings, Endianness : Big
Codec ID : 2000
Duration : 1h 31mn
Bit rate mode : Constant
Bit rate : 192 Kbps
Channel count : 2 channels
Channel positions : Front: L R
Sampling rate : 48.0 KHz
Bit depth : 16 bits
Compression mode : Lossy
Stream size : 126 MiB (8%)
Alignment : Split accross interleaves
Interleave, duration : 42 ms (1.00 video frame)
Interleave, preload duration : 500 ms
Audio #2
ID : 2
Format : AC-3
Format/Info : Audio Coding 3
Mode extension : CM (complete main)
Format settings, Endianness : Big
Codec ID : 2000
Duration : 1h 31mn
Bit rate mode : Constant
Bit rate : 192 Kbps
Channel count : 2 channels
Channel positions : Front: L R
Sampling rate : 48.0 KHz
Bit depth : 16 bits
Compression mode : Lossy
Stream size : 126 MiB (8%)
Alignment : Split accross interleaves
Interleave, duration : 42 ms (1.00 video frame)
Interleave, preload duration : 500 ms
Скриншот c названием фильма Скриншоты
Скачать

Скачать торрент! Бросающие вызов додзё / Dojo Yaburi (Утикава Сэйитиро / Uchikawa Seiichiro) [1964, Япония, дзидай-гэки, исторический боевик, DVDRip] VO (Andi) + Sub Rus Eng

Как скачивать? · Что такое торрент? · Рейтинг и ограничения

Сайт не распространяет и не хранит электронные версии произведений, а лишь предоставляет доступ к создаваемому пользователями каталогу ссылок на торрент-файлы, которые содержат только списки хеш-сумм

[Профиль] [ЛС]
Показать сообщения:    
Ответить на тему

Текущее время: Сегодня 21:43

Часовой пояс: GMT + 4



Вы не можете начинать темы
Вы не можете отвечать на сообщения
Вы не можете редактировать свои сообщения
Вы не можете удалять свои сообщения
Вы не можете голосовать в опросах
Вы не можете прикреплять файлы к сообщениям
Вы не можете скачивать файлы