Соседи. На тропе войны / Neighbors (Николас Столлер / Nicholas Stoller) [2014 г., США, комедия, BDRip-AVC] Dub + Original Eng + Sub (Rus, Ukr, Eng)

Ответить на тему
 
Автор Сообщение

user ®

Стаж: 7 лет 7 месяцев

Сообщений: 20008

Пост Пост: #1 от 25-Окт-2014 06:25

[Цитировать]

-Соседи. На тропе войны / Neighbors«Семейные против студентов» Страна: США
Студия: Good Universe, Point Grey Pictures
Жанр: Комедия
Год выпуска: 2014
Продолжительность: 01:36:41-Перевод: Профессиональный (полное дублирование) BD EUR
Оригинальная аудиодорожка: английский
Cубтитры: русские, украинские, английские
Режиссер: Николас Столлер / Nicholas Stoller
В ролях: Сет Роген, Зак Эфрон, Роуз Бирн, Дэйв Франко, Кристофер Минц-Плассе, Айк Баринхолц, Карла Галло, Лиза Кудроу, Хелстон Сейдж, Джеррод Кармайкл
Описание: Как известно, мужчины бывают двух типов: холостые и глубоко женатые. Первые молоды, мускулисты и точно магнит притягивают блондинок и шумных друзей. Вторые обитают дома, выращивают детей и поглощают сериалы по телеку. Обычно их пути не пересекаются. Но стоит им стать соседями, мужчины выходят на тропу войны.-
Сэмпл: скачать-Релиз от -
Автор рипа: Elheym
Качество: BDRip-AVC (источник: / Blu-ray EUR [Neighbors.2014.BluRay.1080p.AVC.DTS-HD.MA5.1-nLiBRA] / 1080p)
Контейнер: MKV
Видео: 1152x480 (2.40:1), 23.976 fps, MPEG-4 AVC, ~3362 kbps avg, 0.254 bit/pixel
Аудио #1: Русский: АС3, 5.1, 48 kHz, ~448 Кбит/с | Профессиональный (полное дублирование) |
Аудио #2: Английский: АС3, 5.1, 48 kHz, ~448 Кбит/с | Оригинал |
Субтитры: Русские (полные, форсированные), Украинские (полные), Английские (полные, полные SDH, SDH-Colored)
Главы: Присутствуют, сохранены оригинальные
MediaInfo
Уникальный идентификатор : 229826676763418093917762604408672759020 (0xACE70204688EDEED9429FAC1266A2CEC)
Полное имя : Neighbors.2014.DUAL.BDRip-AVC.x264.AC3.-HQCLUB.mkv
Формат : Matroska
Версия формата : Version 2
Размер файла : 2,93 Гбайт
Продолжительность : 1 ч. 36 м.
Общий поток : 4345 Кбит/сек
Дата кодирования : UTC 2014-10-23 13:49:09
Программа кодирования : mkvmerge v5.2.0 ('I can't explain') built on Dec 18 2011 18:12:03
Библиотека кодирования : libebml v1.2.3 + libmatroska v1.3.0
Видео
Идентификатор : 1
Формат : AVC
Формат/Информация : Advanced Video Codec
Профиль формата : High@L4.1
Параметр CABAC формата : Да
Параметр ReFrames формата : 14 кадров
Идентификатор кодека : V_MPEG4/ISO/AVC
Продолжительность : 1 ч. 36 м.
Битрейт : 3362 Кбит/сек
Ширина : 1152 пикселя
Высота : 480 пикселей
Соотношение сторон : 2,40:1
Режим частоты кадров : Постоянный
Частота кадров : 23,976 кадра/сек
Цветовое пространство : YUV
Субдискретизация насыщенности : 4:2:0
Битовая глубина : 8 бит
Тип развёртки : Прогрессивная
Бит/(Пиксели*Кадры) : 0.254
Размер потока : 2,27 Гбайт (77%)
Заголовок : Соседи. На тропе войны / Neighbors (2014) BDRip-AVC by HQCLUB [Elheym]
Библиотека кодирования : x264 core 142 r2479kMod dd79a61
Настройки программы : cabac=1 / ref=14 / deblock=1:-3:-2 / analyse=0x3:0x113 / me=umh / subme=11 / psy=1 / fade_compensate=0.00 / psy_rd=1.00:0.00 / mixed_ref=1 / me_range=32 / chroma_me=1 / trellis=2 / 8x8dct=1 / cqm=0 / deadzone=21,11 / fast_pskip=0 / chroma_qp_offset=-4 / threads=6 / lookahead_threads=1 / sliced_threads=0 / nr=0 / decimate=1 / interlaced=0 / bluray_compat=0 / constrained_intra=0 / fgo=0 / bframes=11 / b_pyramid=2 / b_adapt=2 / b_bias=0 / direct=1 / weightb=1 / open_gop=0 / weightp=2 / keyint=230 / keyint_min=23 / scenecut=40 / intra_refresh=0 / rc_lookahead=40 / rc=crf / mbtree=1 / crf=16.2400 / qcomp=0.70 / qpmin=0 / qpmax=69 / qpstep=4 / vbv_maxrate=50000 / vbv_bufsize=62500 / crf_max=0.0 / nal_hrd=none / filler=0 / ip_ratio=1.40 / aq=1:0.90
Язык : English
Default : Да
Forced : Нет
Аудио #1
Идентификатор : 2
Формат : AC-3
Формат/Информация : Audio Coding 3
Расширение режима : CM (complete main)
Параметр Endianness формата : Big
Идентификатор кодека : A_AC3
Продолжительность : 1 ч. 36 м.
Вид битрейта : Постоянный
Битрейт : 448 Кбит/сек
Каналы : 6 каналов
Расположение каналов : Front: L C R, Side: L R, LFE
Частота : 48,0 КГц
Битовая глубина : 16 бит
Метод сжатия : С потерями
Размер потока : 310 Мбайт (10%)
Заголовок : АС3 5.1 @ 448 kbps - Dub, BD EUR
Язык : Russian
Default : Нет
Forced : Нет
Аудио #2
Идентификатор : 3
Формат : AC-3
Формат/Информация : Audio Coding 3
Расширение режима : CM (complete main)
Параметр Endianness формата : Big
Идентификатор кодека : A_AC3
Продолжительность : 1 ч. 36 м.
Вид битрейта : Постоянный
Битрейт : 448 Кбит/сек
Каналы : 6 каналов
Расположение каналов : Front: L C R, Side: L R, LFE
Частота : 48,0 КГц
Битовая глубина : 16 бит
Метод сжатия : С потерями
Размер потока : 310 Мбайт (10%)
Заголовок : АС3 5.1 @ 448 kbps - Original
Язык : English
Default : Нет
Forced : Нет
Текст #1
Идентификатор : 4
Формат : UTF-8
Идентификатор кодека : S_TEXT/UTF8
Идентификатор кодека/Информация : UTF-8 Plain Text
Заголовок : Full
Язык : Russian
Default : Нет
Forced : Нет
Текст #2
Идентификатор : 5
Формат : UTF-8
Идентификатор кодека : S_TEXT/UTF8
Идентификатор кодека/Информация : UTF-8 Plain Text
Заголовок : Forced
Язык : Russian
Default : Нет
Forced : Нет
Текст #3
Идентификатор : 6
Формат : UTF-8
Идентификатор кодека : S_TEXT/UTF8
Идентификатор кодека/Информация : UTF-8 Plain Text
Заголовок : Full
Язык : Ukrainian
Default : Нет
Forced : Нет
Текст #4
Идентификатор : 7
Формат : UTF-8
Идентификатор кодека : S_TEXT/UTF8
Идентификатор кодека/Информация : UTF-8 Plain Text
Заголовок : Full
Язык : English
Default : Нет
Forced : Нет
Текст #5
Идентификатор : 8
Формат : UTF-8
Идентификатор кодека : S_TEXT/UTF8
Идентификатор кодека/Информация : UTF-8 Plain Text
Заголовок : Full SDH
Язык : English
Default : Нет
Forced : Нет
Текст #6
Идентификатор : 9
Формат : UTF-8
Идентификатор кодека : S_TEXT/UTF8
Идентификатор кодека/Информация : UTF-8 Plain Text
Заголовок : Full SDH Colored
Язык : English
Default : Нет
Forced : Нет
Меню
00:00:00.000 : :Chapter 01
00:05:26.784 : :Chapter 02
00:08:42.188 : :Chapter 03
00:12:29.790 : :Chapter 04
00:17:32.384 : :Chapter 05
00:22:19.046 : :Chapter 06
00:25:34.991 : :Chapter 07
00:30:49.222 : :Chapter 08
00:35:11.025 : :Chapter 09
00:41:16.891 : :Chapter 10
00:46:14.229 : :Chapter 11
00:49:23.585 : :Chapter 12
00:54:13.250 : :Chapter 13
01:00:18.740 : :Chapter 14
01:04:47.174 : :Chapter 15
01:10:16.253 : :Chapter 16
01:14:24.084 : :Chapter 17
01:18:36.670 : :Chapter 18
01:26:15.170 : :Chapter 19
01:31:06.502 : :Chapter 20
01:36:41.545 : :Chapter 21
x264 log
x264 [info]: frame I:1536 Avg QP:12.99 size:119520
x264 [info]: frame P:30800 Avg QP:16.57 size: 33862
x264 [info]: frame B:106768 Avg QP:19.25 size: 11920
x264 [info]: consecutive B-frames: 2.5% 2.6% 10.4% 21.4% 20.0% 31.4% 5.4% 1.4% 1.6% 1.2% 1.0% 1.1%
x264 [info]: ref P L0: 44.8% 9.0% 17.3% 6.8% 5.3% 3.9% 3.3% 1.9% 1.6% 1.4% 1.3% 1.1% 1.0% 1.0% 0.2% 0.0%
x264 [info]: ref B L0: 72.7% 11.8% 5.4% 2.7% 1.9% 1.5% 1.2% 0.7% 0.6% 0.5% 0.5% 0.3% 0.2%
x264 [info]: ref B L1: 92.1% 7.9%
Скриншоты
Сравнения данного релиза с: [url=http://***/forum/viewtopic.php?t=4811007]http://***/forum/viewtopic.php?t=4811007[/url]-
Скачать

Скачать торрент!

Как скачивать? · Что такое торрент? · Рейтинг и ограничения

Сайт не распространяет и не хранит электронные версии произведений, а лишь предоставляет доступ к создаваемому пользователями каталогу ссылок на торрент-файлы, которые содержат только списки хеш-сумм

[Профиль] [ЛС]
Показать сообщения:    
Ответить на тему

Текущее время: Сегодня 13:49

Часовой пояс: GMT + 4



Вы не можете начинать темы
Вы не можете отвечать на сообщения
Вы не можете редактировать свои сообщения
Вы не можете удалять свои сообщения
Вы не можете голосовать в опросах
Вы не можете прикреплять файлы к сообщениям
Вы не можете скачивать файлы