Дневник учителя / Teacher\'s Diary / Kid Teung Wittaya (Нитиуат Таратон / Nithiwat Tharathorn) [2014, Таиланд, романтика, мелодрама, DVDRip] Sub Rus

Ответить на тему
 
Автор Сообщение

user ®

Стаж: 13 лет

Сообщений: 15071

Пост Пост: #1 от 24-Окт-2014 13:25

[Цитировать]

Дневник учителя / Teacher's Diary / Kid Teung Wittaya
Страна: Таиланд
Жанр: романтика, мелодрама
Год выпуска: 2014
Продолжительность: 01:45:16
Перевод: Субтитры
Cубтитры: русские
Оригинальная аудиодорожка: Тайская
Режиссер: Нитиуат Таратон / Nithiwat Tharathorn
В ролях:
Bie Sukrit Wisetkaew в роли Сон
Ploy Chermarn Boonyasak в роли Эн
Weir Sukollawat Kanarot в роли Нуй
Описание:
Данная история рассказывает о жизни, таких разных, но все же похожих людях.
Сон - бывший спортсмен. Его история начинается в 2012 году, когда он приходит устраиваться на должность учителя. В результате чего, его отправляют в сельскую местность, учителем в школе на воде. Он сталкивается с большими трудностями, и кажется, что его жизнь разрушена, но как лучик в темноте, его жизнь приобретает смысл. Он находит дневник учителя, преподававшего годом ранее. В процессе его изучения, происходит много хорошего и плохого. Сон начинает смотреть на жизнь по-новому. И жутко хочется узнать как же выглядит учитель Эн.
Эн - учитель от бога. Из-за стечения обстоятельств, она в 2011 году преподавала в школе на воде, а затем вернулась в город. Спустя 2 года, она возвращается, и находит свой дневник, полупорванный и затертый. В процессе его осмотра, она обнаруживает новые записи, сделанные учителем Сон. © Siara
Совместный проект Kingdom Loli-Pop_Stars и Cheeza
Перевод - Albin
Тайминг, редакция – Siara
Доп. информация:
Кинопоик
IMDB
Сэмпл
Качество видео: DVDRip
Формат видео: AVI
Видео: xvid, 720x304, 25 кадр/сек, 1798 Кбит/сек
Аудио: MP3 кодек, 48 KHz, 192 Кбит/сек, 2 канала
MediaInfo
Формат : AVI
Формат/Информация : Audio Video Interleave
Профиль формата : OpenDML
Размер файла : 1,47 Гбайт
Продолжительность : 1 ч. 45 м.
Общий поток : 2004 Кбит/сек
Название фильма : 000000
Программа кодирования : Lavf55.19.104
Видео
Идентификатор : 0
Формат : xvid
Идентификатор кодека : xvid
Продолжительность : 1 ч. 45 м.
Битрейт : 1798 Кбит/сек
Ширина : 720 пикселей
Высота : 304 пикселя
Соотношение сторон : 2,35:1
Частота кадров : 25,000 кадров/сек
Бит/(Пиксели*Кадры) : 0.329
Размер потока : 1,32 Гбайт (90%)
Аудио
Идентификатор : 1
Формат : MPEG Audio
Версия формата : Version 1
Профиль формата : Layer 3
Режим : Joint stereo
Расширение режима : MS Stereo
Идентификатор кодека : 55
Идентификатор кодека/Подсказка : MP3
Продолжительность : 1 ч. 45 м.
Вид битрейта : Постоянный
Битрейт : 192 Кбит/сек
Каналы : 2 канала
Частота : 48,0 КГц
Метод сжатия : С потерями
Размер потока : 145 Мбайт (10%)
Выравнивание : Соединение по промежуткам
Продолжительность промежутка : 24 мс. (0,60 видеокадр)
Время предзагрузки промежутка : 24 мс.
Скриншот c названием фильма Скриншоты Пример субтитров
Dialogue: 0,0:03:29.88,0:03:31.68,Default NSK,,0000,0000,0000,,Вы в самом конце платины.
Dialogue: 0,0:03:31.72,0:03:33.80,Default NSK,,0000,0000,0000,,Дальше придется добираться на лодке.
Dialogue: 0,0:03:35.96,0:03:38.04,Default NSK,,0000,0000,0000,,Откуда ты?
Dialogue: 0,0:03:38.08,0:03:39.20,Default NSK,,0000,0000,0000,,Чиангмай.
Dialogue: 0,0:03:39.24,0:03:40.36,Default NSK,,0000,0000,0000,,Женат?
Dialogue: 0,0:03:40.40,0:03:41.84,Default NSK,,0000,0000,0000,,Есть девушка.
Dialogue: 0,0:03:42.16,0:03:43.08,Default NSK,,0000,0000,0000,,Ты уже спал с ней?
Dialogue: 0,0:03:43.12,0:03:43.88,Default NSK,,0000,0000,0000,,Что?
Dialogue: 0,0:03:46.92,0:03:47.80,Default NSK,,0000,0000,0000,,- Женщина?\N- Да?
Dialogue: 0,0:03:47.84,0:03:49.45,Default NSK,,0000,0000,0000,,Здесь где-нибудь ловит телефон?
Dialogue: 0,0:03:49.48,0:03:50.96,Default NSK,,0000,0000,0000,,Сложно сказать.
Dialogue: 0,0:03:51.20,0:03:53.16,Default NSK,,0000,0000,0000,,Если погожий день.
Dialogue: 0,0:03:53.20,0:03:56.80,Default NSK,,0000,0000,0000,,Но я не знаю сколько в году таких дней.
Dialogue: 0,0:03:58.12,0:03:59.32,Default NSK,,0000,0000,0000,,Вы забавная.
Dialogue: 0,0:03:59.72,0:04:01.48,Default NSK,,0000,0000,0000,,Так ты уже спал с ней?
Dialogue: 0,0:04:01.52,0:04:02.84,Default NSK,,0000,0000,0000,,Хватит.
Dialogue: 0,0:04:02.88,0:04:03.76,Default NSK,,0000,0000,0000,,А?
Dialogue: 0,0:04:04.08,0:04:05.12,Default NSK,,0000,0000,0000,,Хватит уже.
Dialogue: 0,0:04:05.16,0:04:06.00,Default NSK,,0000,0000,0000,,Остановить лодку?
Dialogue: 0,0:04:06.04,0:04:07.28,Default NSK,,0000,0000,0000,,Хватит болтать!
Dialogue: 0,0:04:07.32,0:04:08.44,Default NSK,,0000,0000,0000,,Ладно.
Dialogue: 0,0:04:09.28,0:04:10.28,Default NSK,,0000,0000,0000,,Девушка.
Dialogue: 0,0:04:10.52,0:04:12.44,Default NSK,,0000,0000,0000,,Мы на месте. Это школа.
Dialogue: 0,0:04:36.12,0:04:42.12,Default NSK,,0000,0000,0000,,{\i1}Бан Каен Витайя "школа на воде".{\i0}
Dialogue: 0,0:04:48.16,0:04:49.84,Default NSK,,0000,0000,0000,,Так свежо.
Dialogue: 0,0:04:49.88,0:04:52.24,Default NSK,,0000,0000,0000,,Давай сфотографируемся вместе. На память.
Dialogue: 0,0:04:54.20,0:04:55.76,Default NSK,,0000,0000,0000,,Раз, два, три.
Dialogue: 0,0:05:00.28,0:05:01.96,Default NSK,,0000,0000,0000,,Ты много взяла.
Dialogue: 0,0:05:02.00,0:05:03.68,Default NSK,,0000,0000,0000,,Только необходимое.
Dialogue: 0,0:05:07.92,0:05:08.72,Default NSK,,0000,0000,0000,,Эн.
Dialogue: 0,0:05:08.76,0:05:09.56,Default NSK,,0000,0000,0000,,А?
Dialogue: 0,0:05:09.60,0:05:11.52,Default NSK,,0000,0000,0000,,Отдаю ее тебе.
Dialogue: 0,0:05:11.56,0:05:13.32,Default NSK,,0000,0000,0000,,Наше первое совместное фото здесь.
Dialogue: 0,0:05:18.36,0:05:19.68,Default NSK,,0000,0000,0000,,Совместное говоришь?
Dialogue: 0,0:05:20.08,0:05:21.32,Default NSK,,0000,0000,0000,,Да, совместное.
Dialogue: 0,0:05:38.60,0:05:39.44,Default NSK,,0000,0000,0000,,{\i1}2012{\i0}
Dialogue: 0,0:05:39.48,0:05:42.76,Default NSK,,0000,0000,0000,,Дети, запишите сегодняшнее \Nчисло в свои тетради.
Dialogue: 0,0:05:42.80,0:05:45.56,Default NSK,,0000,0000,0000,,И откройте книги по тайскому языку.
Dialogue: 0,0:05:50.24,0:05:53.00,Default NSK,,0000,0000,0000,,Класс, запишите число в тетради.
Dialogue: 0,0:05:53.04,0:05:55.00,Default NSK,,0000,0000,0000,,И достаньте книги по тайскому языку.
Dialogue: 0,0:05:55.48,0:05:56.96,Default NSK,,0000,0000,0000,,Эй, не болтать.
Dialogue: 0,0:05:57.52,0:05:58.32,Default NSK,,0000,0000,0000,,Не то получишь.
Dialogue: 0,0:06:21.28,0:06:22.20,Default NSK,,0000,0000,0000,,О, блин!
Скачать

Скачать торрент! Дневник учителя / Teacher\'s Diary / Kid Teung Wittaya (Нитиуат Таратон / Nithiwat Tharathorn) [2014, Таиланд, романтика, мелодрама, DVDRip] Sub Rus

Как скачивать? · Что такое торрент? · Рейтинг и ограничения

Сайт не распространяет и не хранит электронные версии произведений, а лишь предоставляет доступ к создаваемому пользователями каталогу ссылок на торрент-файлы, которые содержат только списки хеш-сумм

[Профиль] [ЛС]
Показать сообщения:    
Ответить на тему

Текущее время: Сегодня 21:26

Часовой пояс: GMT + 4



Вы не можете начинать темы
Вы не можете отвечать на сообщения
Вы не можете редактировать свои сообщения
Вы не можете удалять свои сообщения
Вы не можете голосовать в опросах
Вы не можете прикреплять файлы к сообщениям
Вы не можете скачивать файлы