Ловец снов / Dreamcatcher (Лоуренс Кэздан / Lawrence Kasdan) [2003 г., США, Австралия, ужасы, фантастика, триллер, драма, BDRip 720p] Dub + MVO (РТР) + 2x DVO (DVD, Universal Channel) + 2х AVO (Гаврилов, Живов) + 2x Ukr + Original Eng + Sub (Rus, Eng

Ответить на тему
 
Автор Сообщение

user ®

Стаж: 7 лет 7 месяцев

Сообщений: 20008

Пост Пост: #1 от 23-Окт-2014 21:15

[Цитировать]

-Ловец снов / Dreamcatcher«Злу удается проскользнуть» Страна: США, Австралия
Студия: Castle Rock Entertainment, Kasdan Pictures, NPV Entertainment, Village Roadshow Pictures, WV Films II LLC
Жанр: Ужасы, фантастика, триллер, драма
Год выпуска: 2003
Продолжительность: 02:13:47-Перевод 1: Профессиональный (полное дублирование), BD EUR
Перевод 2: Профессиональный (многоголосый, закадровый), РТР
Перевод 3: Профессиональный (двухголосый, закадровый), неизвестный, с ранних DVD
Перевод 4: Профессиональный (двухголосый, закадровый), Universal Channel
Перевод 5: Авторский (одноголосый, закадровый), А. Гаврилов
Перевод 6: Авторский (одноголосый, закадровый), Ю. Живов
Оригинальная аудиодорожка: английский
Cубтитры: русские, английские
Режиссер: Лоуренс Кэздан / Lawrence Kasdan
В ролях: Морган Фриман, Томас Джейн, Джейсон Ли, Дэмиэн Льюис, Тимоти Олифант, Том Сайзмор, Донни Уолберг, Майки Хоулкамп, Рис Томпсон, Джакомо Бессато
Описание: Джонси, Генри, Пит и Бивер. Двадцать лет назад они были просто мальчишками, проживающими в одном небольшом городке штата Мэн, — детьми, нашедшими в себе достаточно мужества, чтобы героически ответить на детскую жестокость. Награда за спасение странноватого мальчика по имени Даддитс совершенно неожиданно пришла к ним в виде сверхъестественных сил, связавших всех пятерых крепчайшими узами братства.
Но когда на ежегодной охоте друзья собираются вместе в лесной хижине, то вместо ожидаемой теплой веселой атмосферы над ними начинает сгущаться абсолютное зло, приносящее гибель. Сначала к ним попадает незнакомец — затерявшийся в лесу охотник, которому и невдомек, что его организм поражен смертельной заразой. А вслед за ним возникает неистовствующий снежный буран, в эпицентре которого движется нечто еще более зловещее… Впереди — крупнейшее противостояние ужасу, не имеющему аналогов.-
Сэмпл: скачать-Релиз от -
Автор рипа: Elheym
Качество: BDRip 720p (источник: / Blu-ray EUR / 1080p)
Контейнер: MKV
Видео: 1280x532 (2.40:1), 23.976 fps, MPEG-4 AVC, ~8700 kbps avg, 0.533 bit/pixel
Аудио #1: Русский: AC3, 2.0, 48 kHz, ~192 Кбит/с | Профессиональный (полное дублирование), BD EUR |
Аудио #2: Русский: AC3, 2.0, 48 kHz, ~192 Кбит/с | Профессиональный (многоголосый, закадровый), РТР |
Аудио #3: Русский: AC3, 2.0, 48 kHz, ~192 Кбит/с | Профессиональный (двухголосый, закадровый), DVD |
Аудио #4: Русский: AC3, 2.0, 48 kHz, ~192 Кбит/с | Профессиональный (двухголосый, закадровый), Universal Channel |
Аудио #5: Русский: AC3, 5.1, 48 kHz, ~384 Кбит/с | Авторский (одноголосый, закадровый), Гаврилов |
Аудио #6: Русский: AC3, 5.1, 48 kHz, ~384 Кбит/с | Авторский (одноголосый, закадровый), Живов |
Аудио #7: Украинский: АС3, 2.0, 48 kHz, ~192 Кбит/с | Профессиональный (многоголосый, закадровый), 1+1 |
Аудио #8: Украинский: АС3, 2.0, 48 kHz, ~192 Кбит/с | Профессиональный (многоголосый, закадровый), ICTV |
Аудио #9: Английский: DTS, 5.1, 48 kHz, ~1509 Кбит/с | Оригинал |
Субтитры: Русские (полные х2, форсированные), Английские (полные, полные SDH)
Главы: Присутствуют, сохранены оригинальные
MediaInfo
Уникальный идентификатор : 191895923952077902851959380738411201684 (0x905DCF846ED503D699794C899B860494)
Полное имя : Dreamcatcher.2003.720p.BluRay.6xRus.2xUkr.Eng.-HQCLUB.mkv
Формат : Matroska
Версия формата : Version 2
Размер файла : 11,3 Гбайт
Продолжительность : 2 ч. 13 м.
Общий поток : 12,1 Мбит/сек
Дата кодирования : UTC 2014-10-17 16:04:11
Программа кодирования : mkvmerge v5.2.0 ('I can't explain') built on Dec 18 2011 18:12:03
Библиотека кодирования : libebml v1.2.3 + libmatroska v1.3.0
Видео
Идентификатор : 1
Формат : AVC
Формат/Информация : Advanced Video Codec
Профиль формата : High@L4.1
Параметр CABAC формата : Да
Параметр ReFrames формата : 8 кадров
Идентификатор кодека : V_MPEG4/ISO/AVC
Продолжительность : 2 ч. 13 м.
Битрейт : 8700 Кбит/сек
Ширина : 1280 пикселей
Высота : 532 пикселя
Соотношение сторон : 2,40:1
Режим частоты кадров : Постоянный
Частота кадров : 23,976 кадра/сек
Цветовое пространство : YUV
Субдискретизация насыщенности : 4:2:0
Битовая глубина : 8 бит
Тип развёртки : Прогрессивная
Бит/(Пиксели*Кадры) : 0.533
Размер потока : 7,90 Гбайт (70%)
Заголовок : Ловец снов / Dreamcatcher (2003) BDRip 720p by HQCLUB [Elheym]
Библиотека кодирования : x264 core 142 r2479kMod dd79a61
Настройки программы : cabac=1 / ref=9 / deblock=1:-3:-2 / analyse=0x3:0x113 / me=umh / subme=11 / psy=1 / fade_compensate=0.00 / psy_rd=1.10:0.04 / mixed_ref=1 / me_range=32 / chroma_me=1 / trellis=2 / 8x8dct=1 / cqm=0 / deadzone=21,11 / fast_pskip=0 / chroma_qp_offset=-5 / threads=6 / lookahead_threads=1 / sliced_threads=0 / nr=0 / decimate=1 / interlaced=0 / bluray_compat=0 / constrained_intra=0 / fgo=0 / bframes=14 / b_pyramid=1 / b_adapt=2 / b_bias=0 / direct=3 / weightb=1 / open_gop=0 / weightp=2 / keyint=230 / keyint_min=23 / scenecut=40 / intra_refresh=0 / rc_lookahead=40 / rc=2pass / mbtree=0 / bitrate=8700 / ratetol=1.0 / qcomp=0.70 / qpmin=0 / qpmax=69 / qpstep=4 / cplxblur=20.0 / qblur=0.5 / vbv_maxrate=50000 / vbv_bufsize=62500 / nal_hrd=none / filler=0 / ip_ratio=1.40 / pb_ratio=1.30 / aq=3:0.90
Язык : English
Default : Да
Forced : Нет
Аудио #1
Идентификатор : 2
Формат : AC-3
Формат/Информация : Audio Coding 3
Профиль формата : Dolby Digital
Расширение режима : CM (complete main)
Параметр Endianness формата : Big
Идентификатор кодека : A_AC3
Продолжительность : 2 ч. 13 м.
Вид битрейта : Постоянный
Битрейт : 192 Кбит/сек
Каналы : 2 канала
Расположение каналов : Front: L R
Частота : 48,0 КГц
Битовая глубина : 16 бит
Метод сжатия : С потерями
Размер потока : 184 Мбайт (2%)
Заголовок : АС3 2.0 @ 192 kbps - Dub, BD EUR
Язык : Russian
Default : Нет
Forced : Нет
Аудио #2
Идентификатор : 3
Формат : AC-3
Формат/Информация : Audio Coding 3
Расширение режима : CM (complete main)
Параметр Endianness формата : Big
Идентификатор кодека : A_AC3
Продолжительность : 2 ч. 13 м.
Вид битрейта : Постоянный
Битрейт : 192 Кбит/сек
Каналы : 2 канала
Расположение каналов : Front: L R
Частота : 48,0 КГц
Битовая глубина : 16 бит
Метод сжатия : С потерями
Размер потока : 184 Мбайт (2%)
Заголовок : АС3 2.0 @ 192 kbps - MVO, RTR
Язык : Russian
Default : Нет
Forced : Нет
Аудио #3
Идентификатор : 4
Формат : AC-3
Формат/Информация : Audio Coding 3
Расширение режима : CM (complete main)
Параметр Endianness формата : Big
Идентификатор кодека : A_AC3
Продолжительность : 2 ч. 13 м.
Вид битрейта : Постоянный
Битрейт : 192 Кбит/сек
Каналы : 2 канала
Расположение каналов : Front: L R
Частота : 48,0 КГц
Битовая глубина : 16 бит
Метод сжатия : С потерями
Размер потока : 184 Мбайт (2%)
Заголовок : АС3 2.0 @ 192 kbps - DVO, DVD
Язык : Russian
Default : Нет
Forced : Нет
Аудио #4
Идентификатор : 5
Формат : AC-3
Формат/Информация : Audio Coding 3
Расширение режима : CM (complete main)
Параметр Endianness формата : Big
Идентификатор кодека : A_AC3
Продолжительность : 2 ч. 13 м.
Вид битрейта : Постоянный
Битрейт : 192 Кбит/сек
Каналы : 2 канала
Расположение каналов : Front: L R
Частота : 48,0 КГц
Битовая глубина : 16 бит
Метод сжатия : С потерями
Размер потока : 184 Мбайт (2%)
Заголовок : АС3 2.0 @ 192 kbps - DVO, Universal Channel
Язык : Russian
Default : Нет
Forced : Нет
Аудио #5
Идентификатор : 6
Формат : AC-3
Формат/Информация : Audio Coding 3
Расширение режима : CM (complete main)
Параметр Endianness формата : Big
Идентификатор кодека : A_AC3
Продолжительность : 2 ч. 13 м.
Вид битрейта : Постоянный
Битрейт : 384 Кбит/сек
Каналы : 6 каналов
Расположение каналов : Front: L C R, Side: L R, LFE
Частота : 48,0 КГц
Битовая глубина : 16 бит
Метод сжатия : С потерями
Размер потока : 367 Мбайт (3%)
Заголовок : AC3 5.1 @ 384 kbps - AVO, Gavrilov
Язык : Russian
Default : Нет
Forced : Нет
Аудио #6
Идентификатор : 7
Формат : AC-3
Формат/Информация : Audio Coding 3
Расширение режима : CM (complete main)
Параметр Endianness формата : Big
Идентификатор кодека : A_AC3
Продолжительность : 2 ч. 13 м.
Вид битрейта : Постоянный
Битрейт : 384 Кбит/сек
Каналы : 6 каналов
Расположение каналов : Front: L C R, Side: L R, LFE
Частота : 48,0 КГц
Битовая глубина : 16 бит
Метод сжатия : С потерями
Размер потока : 367 Мбайт (3%)
Заголовок : AC3 5.1 @ 384 kbps - AVO, Jivov
Язык : Russian
Default : Нет
Forced : Нет
Аудио #7
Идентификатор : 8
Формат : AC-3
Формат/Информация : Audio Coding 3
Расширение режима : CM (complete main)
Параметр Endianness формата : Big
Идентификатор кодека : A_AC3
Продолжительность : 2 ч. 13 м.
Вид битрейта : Постоянный
Битрейт : 192 Кбит/сек
Каналы : 2 канала
Расположение каналов : Front: L R
Частота : 48,0 КГц
Битовая глубина : 16 бит
Метод сжатия : С потерями
Размер потока : 184 Мбайт (2%)
Заголовок : АС3 2.0 @ 192 kbps - MVO, 1+1
Язык : Ukrainian
Default : Нет
Forced : Нет
Аудио #8
Идентификатор : 9
Формат : AC-3
Формат/Информация : Audio Coding 3
Расширение режима : CM (complete main)
Параметр Endianness формата : Big
Идентификатор кодека : A_AC3
Продолжительность : 2 ч. 13 м.
Вид битрейта : Постоянный
Битрейт : 192 Кбит/сек
Каналы : 2 канала
Расположение каналов : Front: L R
Частота : 48,0 КГц
Битовая глубина : 16 бит
Метод сжатия : С потерями
Размер потока : 184 Мбайт (2%)
Заголовок : АС3 2.0 @ 192 kbps - MVO, ICTV
Язык : Ukrainian
Default : Нет
Forced : Нет
Аудио #9
Идентификатор : 10
Формат : DTS
Формат/Информация : Digital Theater Systems
Режим : 16
Параметр Endianness формата : Big
Идентификатор кодека : A_DTS
Продолжительность : 2 ч. 13 м.
Вид битрейта : Постоянный
Битрейт : 1509 Кбит/сек
Каналы : 6 каналов
Расположение каналов : Front: L C R, Side: L R, LFE
Частота : 48,0 КГц
Битовая глубина : 24 бит
Метод сжатия : С потерями
Размер потока : 1,41 Гбайт (12%)
Заголовок : DTS 5.1 @ 1509 kbps - Original
Язык : English
Default : Нет
Forced : Нет
Текст #1
Идентификатор : 11
Формат : UTF-8
Идентификатор кодека : S_TEXT/UTF8
Идентификатор кодека/Информация : UTF-8 Plain Text
Заголовок : Full, BD
Язык : Russian
Default : Нет
Forced : Нет
Текст #2
Идентификатор : 12
Формат : UTF-8
Идентификатор кодека : S_TEXT/UTF8
Идентификатор кодека/Информация : UTF-8 Plain Text
Заголовок : Full
Язык : Russian
Default : Нет
Forced : Нет
Текст #3
Идентификатор : 13
Формат : UTF-8
Идентификатор кодека : S_TEXT/UTF8
Идентификатор кодека/Информация : UTF-8 Plain Text
Заголовок : Forced
Язык : Russian
Default : Да
Forced : Нет
Текст #4
Идентификатор : 14
Формат : UTF-8
Идентификатор кодека : S_TEXT/UTF8
Идентификатор кодека/Информация : UTF-8 Plain Text
Заголовок : Full
Язык : English
Default : Нет
Forced : Нет
Текст #5
Идентификатор : 15
Формат : UTF-8
Идентификатор кодека : S_TEXT/UTF8
Идентификатор кодека/Информация : UTF-8 Plain Text
Заголовок : Full SDH
Язык : English
Default : Нет
Forced : Нет
Меню
00:00:00.000 : :Chapter 01
00:06:18.044 : :Chapter 02
00:13:31.435 : :Chapter 03
00:20:32.981 : :Chapter 04
00:30:24.656 : :Chapter 05
00:36:30.730 : :Chapter 06
00:46:05.512 : :Chapter 07
00:52:31.565 : :Chapter 08
00:59:46.249 : :Chapter 09
01:05:41.479 : :Chapter 10
01:10:58.796 : :Chapter 11
01:21:54.367 : :Chapter 12
01:30:06.359 : :Chapter 13
01:35:03.197 : :Chapter 14
01:40:59.303 : :Chapter 15
01:47:01.039 : :Chapter 16
01:53:29.594 : :Chapter 17
01:59:50.850 : :Chapter 18
02:13:45.809 : :Chapter 19
x264 log
x264 [info]: frame I:1207 Avg QP:14.88 size:125539
x264 [info]: frame P:42820 Avg QP:16.87 size: 70717
x264 [info]: frame B:148406 Avg QP:19.03 size: 37369
x264 [info]: consecutive B-frames: 2.7% 4.2% 8.0% 19.5% 15.5% 31.2% 6.6% 3.9% 2.7% 1.9% 1.2% 1.0% 0.6% 0.7% 0.4%
x264 [info]: ref P L0: 49.7% 11.2% 16.2% 7.9% 5.4% 4.0% 3.2% 2.1% 0.4% 0.0%
x264 [info]: ref B L0: 73.7% 12.0% 6.3% 3.2% 2.2% 1.7% 0.9%
x264 [info]: ref B L1: 90.8% 9.2%
Скриншоты
Скачать

Скачать торрент!

Как скачивать? · Что такое торрент? · Рейтинг и ограничения

Сайт не распространяет и не хранит электронные версии произведений, а лишь предоставляет доступ к создаваемому пользователями каталогу ссылок на торрент-файлы, которые содержат только списки хеш-сумм

[Профиль] [ЛС]
Показать сообщения:    
Ответить на тему

Текущее время: Сегодня 16:14

Часовой пояс: GMT + 4



Вы не можете начинать темы
Вы не можете отвечать на сообщения
Вы не можете редактировать свои сообщения
Вы не можете удалять свои сообщения
Вы не можете голосовать в опросах
Вы не можете прикреплять файлы к сообщениям
Вы не можете скачивать файлы